アットウィキロゴ
STAR SHIP☆HERO
Lucky Vacuum

BASIC

Level: 3
BPM: 190
Notes: 324

1
口口口口 |----|
口口口口 |----|
口口口口 |----|
口口口口 |----|
2
口口口口 |①---|
口口口口 |----|
①②口口 |②---|
口口口口 |----|
3
口口口口 |①---|
口口口口 |----|
口口①② |②---|
口口口口 |----|
4
口口口口 |①---|
口口口口 |----|
口口②口 |②---|
口口①口 |----|
5
口口②口 |①---|
口口①口 |----|
口口口口 |②---|
口口口口 |----|
6
口口口口 |①---|
口口口口 |----|
口口②① |②---|
口口口口 |----|
7
口口口口 |①---|
口口口口 |----|
②①口口 |②---|
口口口口 |----|
8
口口口口 |①---|
口口口口 |----|
口②口口 |②---|
口①口口 |----|
9
口②口口 |①---|
口①口口 |----|
口口口口 |②---|
口口口口 |----|
10
口口口口 |①---|
②口口③ |----|
口①①口 |②---|
口口口口 |③---|
11
①口口② |----|
口口口口 |----|
口口口口 |①---|
口口口口 |②---|
12
口口口口 |①---|
③口口② |----|
口①①口 |②---|
口口口口 |③---|
13
②口口① |----|
口口口口 |----|
口口口口 |①---|
口口口口 |②---|
14
口口口口 |①---|
②口口③ |----|
口①①口 |②---|
口口口口 |③---|
15
①口口② |----|
口口口口 |----|
口口口口 |①---|
口口口口 |②---|
16
口口口口 |①---|
③口口② |----|
口①①口 |②---|
口口口口 |③---|
17
②口口① |----|
口口口口 |----|
口口口口 |①---|
口口口口 |②---|
18
口口口口 |①---|
口②③口 |----|
①①①① |②---|
口口口口 |③---|
19
口③②口 |①---|
口口口① |----|
口口口口 |②---|
口口口口 |③---|
20
①口口口 |①---|
口口口口 |----|
口③②口 |②---|
口口口口 |③---|
21
口④③口 |①---|
口②①口 |②---|
口口口口 |③---|
口口口口 |④---|
22
口口口口 |①---|
口③②口 |----|
口①①口 |②---|
口口口口 |③---|
23
口②③口 |①---|
①口口口 |----|
口口口口 |②---|
口口口口 |③---|
24
口口口① |①---|
③口口③ |----|
口②②口 |②---|
口口口口 |--③-|
25
口③③口 |--①-|
口口口口 |--②-|
①口口① |----|
②口口② |③---|
26
口口口口 |①---|
口①①口 |----|
口口口口 |②---|
口口②口 |----|
27
口口口口 |①---|
口口口口 |----|
口口②口 |②---|
口①口口 |----|
28
③口口③ |①---|
口口②口 |----|
口①口口 |②---|
口口口口 |--③-|
29
口③③口 |--①-|
①口口① |--②-|
②口口② |----|
口口口口 |③---|
30
口口口口 |①---|
口①①口 |----|
口口口口 |②---|
口②口口 |----|
31
口口口口 |①---|
口口口口 |----|
口②口口 |②---|
口口①口 |----|
32
③口口③ |①---|
口②口口 |----|
口口①口 |②---|
口口口口 |--③-|
33
口③③口 |--①-|
①口口① |--②-|
②口口② |----|
口口口口 |③---|
34
口口口口 |①---|
①②③④ |②---|
口口口口 |③---|
口口口口 |④---|
35
口①①口 |①---|
口口口口 |----|
口②口口 |②---|
口③口口 |③---|
36
口口口口 |①---|
④口③④ |②---|
口口②口 |③---|
口口①口 |--④-|
37
口③③口 |--①-|
口口口口 |--②-|
①口口① |----|
②口口② |③---|
38
口口口口 |①---|
④③②① |②---|
口口口口 |③---|
口口口口 |④---|
39
口①①口 |①---|
口口口口 |----|
口口②口 |②---|
口口③口 |③---|
40
口口口口 |①---|
④③口④ |②---|
口②口口 |③---|
口①口口 |--④-|
41
口③③口 |--①-|
口口口口 |--②-|
①口口① |----|
②口口② |③---|
42
口口口口 |①---|
①②③④ |②---|
口口口口 |③---|
口口口口 |④---|
43
口①①口 |①---|
口口口口 |----|
口②口口 |②---|
口③口口 |③---|
44
口口口口 |①---|
④口③④ |②---|
口口②口 |③---|
口口①口 |--④-|
45
口③③口 |--①-|
口口口口 |--②-|
①口口① |----|
②口口② |③---|
46
口口口口 |①---|
④③②① |②---|
口口口口 |③---|
口口口口 |④---|
47
口①①口 |①---|
口口口口 |----|
口口②口 |②---|
口口③口 |③---|
48
口口口口 |①---|
④③口④ |②---|
口②口口 |③---|
口①口口 |--④-|
49
口③③口 |--①-|
口口口口 |--②-|
①口口① |----|
②口口② |③---|
50
口口口口 |①---|
口①①口 |----|
口口口口 |----|
口口口口 |----|
51
口口口口 |①---|
口①口口 |----|
口②口口 |②---|
口口口口 |----|
52
口口口口 |①---|
口口①口 |----|
口口②口 |②---|
口口口口 |----|
53
口口口口 |①---|
口口口① |----|
口口口② |②---|
口口口口 |----|
54
口口口口 |①---|
①口口口 |----|
②口口口 |②---|
口口口口 |----|
55
口口口口 |①---|
口①口口 |----|
口②口口 |②---|
口口口口 |----|
56
口口口口 |①---|
口口①口 |----|
口口②口 |②---|
口口口口 |----|
57
口口口口 |①---|
口口口① |----|
口口口② |②---|
口口口口 |----|
58
口①①口 |①---|
③口口② |----|
口口口口 |②---|
口口口口 |③---|
59
口口口口 |----|
口口口口 |----|
②口口① |①---|
口口口口 |②---|
60
口口口口 |①---|
口口口口 |----|
③口口② |②---|
口①①口 |③---|
61
口口口口 |----|
②口口① |----|
口口口口 |①---|
口口口口 |②---|
62
口①①口 |①---|
③口口② |----|
口口口口 |②---|
口口口口 |③---|
63
口口口口 |----|
口口口口 |----|
②口口① |①---|
口口口口 |②---|
64
③口口③ |①---|
口②②口 |----|
口口口口 |②---|
口①①口 |--③-|
65
口口口口 |--①-|
①③③① |--②-|
②口口② |----|
口口口口 |③---|
66
②口口② |①---|
口口口口 |②---|
口①①口 |③---|
③④口口 |④---|
67
口口口口 |①---|
口口口口 |②---|
口口④③ |③---|
口口①② |④---|
68
④口口④ |①---|
口③③口 |②---|
②①口口 |③---|
口口口口 |--④-|
69
口口口口 |--①-|
①③③① |--②-|
②口口② |----|
口口口口 |③---|
70
②口口② |①---|
口口口口 |②---|
口①①口 |③---|
口口④③ |④---|
71
口口口口 |①---|
口口口口 |②---|
③④口口 |③---|
②①口口 |④---|
72
④口口④ |①---|
口③③口 |②---|
口口①② |③---|
口口口口 |--④-|
73
口口口口 |--①-|
①③③① |--②-|
②口口② |----|
口口口口 |③---|
74
口②②③ |①---|
口口口④ |②---|
口①①口 |③---|
口口口口 |④---|
75
口口口口 |①---|
③口口口 |----|
②口口① |②---|
口口口口 |③---|
76
①口口口 |①---|
口口口口 |----|
口口口口
口口口口

③口口③
口②②口
口口口口 |②---|
口口口口 |--③-|
77
口③③口 |--①-|
①口口① |--②-|
②口口② |----|
口口口口 |③---|
78
口口口口 |①---|
口口①口 |②---|
口口②口 |③---|
口口③口 |----|
79
口口口口 |①---|
口③口口 |②---|
口②口口 |③---|
口①口口 |----|
80
口口口口 |①---|
口口口① |②---|
口口口② |③---|
口口口③ |----|
81
口口口口 |①---|
③口口口 |②---|
②口口口 |③---|
①口口口 |----|
82
口口口口 |①---|
口①①口 |②---|
口②②口 |③---|
口③③口 |----|
83
口口口口 |①---|
③口口③ |②---|
②口口② |③---|
①口口① |----|
84
④④④④ |①---|
口①①口 |--②-|
口③③口 |----|
②口口② |③-④-|

accuracy: 100%
最終更新:2022年05月07日 03:11