アットウィキロゴ
STAR SHIP☆HERO
Lucky Vacuum

ADVANCED

Level: 6
BPM: 190
Notes: 554

1
口口口口 |----|
口口口口 |----|
口口口口 |----|
口口口口 |----|
2
口口口口 |①---|
④口①口 |②---|
口②口口 |③---|
③口口口 |④---|
3
口口口口 |①---|
口①口④ |②---|
口口②口 |③---|
口口口③ |④---|
4
④口①口 |①---|
口②口口 |②---|
③口口口 |③---|
口口口口 |④---|
5
口①口④ |①---|
口口②口 |②---|
口口口③ |③---|
口口口口 |④---|
6
口口口口 |①---|
口①口④ |②---|
口口②口 |③---|
口口口③ |④---|
7
口口口口 |①---|
④口①口 |②---|
口②口口 |③---|
③口口口 |④---|
8
口①口④ |①---|
口口②口 |②---|
口口口③ |③---|
口口口口 |④---|
9
④口①口 |①---|
口②口口 |②---|
③口口口 |③---|
口口口口 |④---|
10
⑤④③② |①---|
口口口口 |----|
口①①口 |②-③-|
口口口口 |④-⑤-|
11
口口口口 |----|
②口口① |----|
①口口② |①---|
口口口口 |②---|
12
⑤口口口 |①---|
口④口口 |----|
口口③口 |②-③-|
口①①② |④-⑤-|
13
口③③口 |----|
口②②口 |--①-|
①口口① |--②-|
口口口口 |③---|
14
②③④⑤ |①---|
口口口口 |----|
口口口口 |②-③-|
口①①口 |④-⑤-|
15
口口口口 |----|
①口口② |----|
②口口① |①---|
口口口口 |②---|
16
口口口⑤ |①---|
口口④口 |----|
口③口口 |②-③-|
②①①口 |④-⑤-|
17
①口口口 |--①-|
②⑤⑤口 |②-③-|
③④④口 |--④-|
口口口口 |⑤---|
18
⑥⑤④③ |①---|
②口口② |②---|
口口口口 |③-④-|
口①①口 |⑤-⑥-|
19
口口口口 |----|
口①②口 |----|
口②①口 |①---|
口口口口 |②---|
20
⑥口口口 |①---|
②⑤口② |②---|
口口④口 |③-④-|
口①①③ |⑤-⑥-|
21
口③③口 |----|
口②②口 |--①-|
①口口① |--②-|
口口口口 |③---|
22
③④⑤⑥ |①---|
②口口② |②---|
口口口口 |③-④-|
口①①口 |⑤-⑥-|
23
口口口口 |----|
口①②口 |----|
口②①口 |①---|
口口口口 |②---|
24
⑥⑥⑥⑥ |①---|
②口⑤② |②---|
口④口口 |③-④-|
③①①口 |⑤-⑥-|
25
口④④口 |--①-|
①口口② |--②-|
①口口② |--③-|
口③③口 |④---|
26
口④④口 |①---|
②口口③ |②---|
口口口口 |③---|
①口口① |--④-|
27
口③③口 |----|
口口口口 |①---|
②口口① |②---|
口口口口 |--③-|
28
③口口③ |----|
口口口口 |①---|
口口口口 |②---|
①口口② |--③-|
29
口④④口 |--①-|
①口口① |--②-|
②口口② |--③-|
③口口③ |④---|
30
口④④口 |①---|
③口口② |②---|
口口口口 |③---|
口①①口 |--④-|
31
口③③口 |----|
口口口口 |①---|
①口口② |②---|
口口口口 |--③-|
32
③口口③ |----|
口口口口 |①---|
口口口口 |②---|
②口口① |--③-|
33
④口口④ |--①-|
①口口① |--②-|
②口口② |③---|
口③③口 |④---|
34
口②②口 |①---|
③口⑤口 |②---|
口④口⑥ |③-④-|
①口口① |⑤-⑥-|
35
口口①② |--①-|
口③④口 |--②-|
口④③口 |③---|
①②口口 |④---|
36
口⑥⑥口 |①---|
①⑤口② |②---|
①口④② |③-④-|
口③口口 |⑤-⑥-|
37
口④④口 |--①-|
①口口② |--②-|
①口口② |--③-|
口③③口 |④---|
38
②口口② |①---|
口⑤口③ |②---|
⑥口④口 |③-④-|
①口口① |⑤-⑥-|
39
②①口口 |--①-|
口④③口 |--②-|
口③④口 |③---|
口口②① |④---|
40
⑥口口⑥ |①---|
②口⑤① |②---|
②④口① |③-④-|
口口③口 |⑤-⑥-|
41
⑤口口⑤ |--①-|
口①口口 |②-③-|
④口②④ |--④-|
口③口口 |⑤---|
42
口②②口 |①---|
③口⑤口 |②---|
口④口⑥ |③-④-|
①口口① |⑤-⑥-|
43
口口①② |--①-|
口③④口 |--②-|
口④③口 |③---|
①②口口 |④---|
44
口⑥⑥口 |①---|
①口⑤② |②---|
①④口② |③-④-|
口口③口 |⑤-⑥-|
45
口④④口 |--①-|
①口口② |--②-|
①口口② |--③-|
口③③口 |④---|
46
②口口② |①---|
口⑤口③ |②---|
⑥口④口 |③-④-|
①口口① |⑤-⑥-|
47
②①口口 |--①-|
口④③口 |--②-|
口③④口 |③---|
口口②① |④---|
48
⑥口口⑥ |①---|
②⑤口① |②---|
②口④① |③-④-|
口③口口 |⑤-⑥-|
49
⑤口口⑤ |--①-|
口口①口 |②-③-|
口②口口 |--④-|
④口③④ |⑤---|
50
口口口口 |①---|
口口口口 |----|
①口口① |----|
口口口口 |----|
51
口②口口 |①---|
口①口口 |②---|
口⑤④③ |③-④-|
口口口口 |⑤---|
52
口口②口 |①---|
口口①口 |②---|
③④⑤口 |③-④-|
口口口口 |⑤---|
53
口②口口 |①---|
口①口口 |②---|
口⑤④③ |③-④-|
口口口口 |⑤---|
54
口口②口 |①---|
口口①口 |②---|
③④⑤口 |③-④-|
口口口口 |⑤---|
55
口②口口 |①---|
口①口口 |②---|
口⑤④③ |③-④-|
口口口口 |⑤---|
56
口口②口 |①---|
口口①口 |②---|
③④⑤口 |③-④-|
口口口口 |⑤---|
57
口②口口 |①---|
口①口口 |②---|
口⑤④③ |③-④-|
口口口口 |⑤---|
58
口口①口 |①---|
④②口③ |②---|
⑥口口⑤ |③-④-|
口口口口 |⑤-⑥-|
59
口口①口 |----|
口口口口 |----|
口②口口 |①---|
口口口口 |②---|
60
口②口口 |①---|
⑥口①⑤ |②---|
④口口③ |③-④-|
口口口口 |⑤-⑥-|
61
②②③③ |----|
口口口口 |--①-|
口①①口 |--②-|
口口口口 |③---|
62
口口口口 |①---|
口口①口 |②---|
④②口③ |③-④-|
⑥口口⑤ |⑤-⑥-|
63
口①口口 |----|
口口口口 |----|
口口②口 |①---|
口口口口 |②---|
64
⑥口口⑥ |①---|
口口②⑤ |②---|
口①口④ |③-④-|
口口口③ |⑤-⑥-|
65
④口口④ |--①-|
口①①口 |--②-|
口②②口 |--③-|
口③③口 |④---|
66
口②②口 |①---|
③口口⑥ |②---|
①④口① |③-④-|
①口⑤① |⑤-⑥-|
67
①口口② |--①-|
口③④口 |--②-|
口④③口 |③---|
②口口① |④---|
68
⑥⑥⑥⑥ |①---|
①⑤口② |②---|
①口④② |③-④-|
口③口口 |⑤-⑥-|
69
口④④口 |--①-|
①口口① |--②-|
②口口② |--③-|
③口口③ |④---|
70
②口口② |①---|
③口⑤口 |②---|
口④口⑥ |③-④-|
口①①口 |⑤-⑥-|
71
②③③② |--①-|
③口口③ |--②-|
④口口④ |--③-|
①④④① |④---|
72
②⑥⑥② |①---|
口口口⑤ |②---|
口①①④ |③-④-|
口口口③ |⑤-⑥-|
73
⑤口口⑤ |--①-|
①口口口 |②-③-|
②口口口 |--④-|
④③③④ |⑤---|
74
口口口口 |①---|
口①口口 |②---|
口口②口 |③-④-|
⑥⑤④③ |⑤-⑥-|
75
⑤②①口 |--①-|
④口口口 |--②-|
③①②口 |--③-|
口口口口 |④-⑤-|
76
口②②口 |①---|
口口口口 |②---|
口口口口
口①①口

口口口③
口口口④
口口口⑤ |③-④-|
口⑥⑥口 |⑤-⑥-|
77
④③③④ |--①-|
口②②口 |--②-|
口①①口 |--③-|
口口口口 |④---|
78
口口口口 |①---|
口④③口 |②---|
口⑥⑤口 |③-④-|
①①②② |⑤-⑥-|
79
口④④口 |--①-|
①口口② |--②-|
①口口② |--③-|
口③③口 |④---|
80
①口口② |①---|
①④③② |②---|
口⑥⑤口 |③-④-|
口口口口 |⑤-⑥-|
81
口④④口 |--①-|
口口口口 |--②-|
③口口③ |--③-|
①①②② |④---|
82
①口口② |①---|
①④③② |②---|
口⑥⑤口 |③-④-|
口口口口 |⑤-⑥-|
83
④口口④ |--①-|
①口口② |--②-|
①口口② |--③-|
口③③口 |④---|
84
④④④④ |①---|
②①①② |--②-|
②①①② |----|
口③③口 |③-④-|

accuracy: 100%
最終更新:2022年05月07日 03:21