アットウィキロゴ
STAR SHIP☆HERO
Lucky Vacuum

EXTREME

Level: 9.0
BPM: 190
Notes: 747

1
口口口口 |----|
口口口口 |----|
口口口口 |----|
口口口口 |----|
2
口⑧口口 |①-②-|
口口②口 |③-④-|
⑥③④① |⑤-⑥-|
口⑤⑦口 |⑦-⑧-|
3
口口⑦① |①-②-|
口⑥③口 |③-④-|
⑤②口④ |⑤-⑥-|
口口⑧口 |⑦-⑧-|
4
口口口口 |①-②-|
⑥⑧④口 |③-④-|
⑦⑤②口 |⑤-⑥-|
口③口① |⑦-⑧-|
5
①⑦口口 |①-②-|
口口⑥④ |③-④-|
口口③⑤ |⑤-⑥-|
口⑧口② |⑦-⑧-|
6
口口⑧口 |①-②-|
口②口口 |③-④-|
①④③⑥ |⑤-⑥-|
口⑦⑤口 |⑦-⑧-|
7
①⑦口口 |①-②-|
口③⑥口 |③-④-|
④口②⑤ |⑤-⑥-|
口⑧口口 |⑦-⑧-|
8
口口口口 |①-②-|
口④⑧⑥ |③-④-|
口②⑤⑦ |⑤-⑥-|
①口③口 |⑦-⑧-|
9
口口⑦① |①-②-|
④⑥口口 |③-④-|
⑤③口口 |⑤-⑥-|
②口口⑧ |⑦-⑧-|
10
口①口① |①---|
口④口⑥ |②---|
③口⑤口 |③-④-|
②口②口 |⑤-⑥-|
11
口①口口 |----|
口口口② |----|
②口口口 |①---|
口口①口 |②---|
12
①口①口 |①---|
⑥口④口 |②---|
口⑤口③ |③-④-|
口②口② |⑤-⑥-|
13
口口口口 |----|
③口口② |--①-|
②口口③ |--②-|
口①①口 |③---|
14
①口①口 |①---|
口④口⑥ |②---|
③口⑤口 |③-④-|
口②口② |⑤-⑥-|
15
口口①口 |----|
②口口口 |----|
口口口② |①---|
口①口口 |②---|
16
口①口① |①---|
口口口口 |②---|
口口口口
②口②口

口⑥口口
⑤口口④
口口③口 |③-④-|
口口口口 |⑤-⑥-|
17
口口口口 |--①-|
④③口⑤ |②-③-|
⑤②口④ |--④-|
口①口口 |⑤---|
18
①①①① |①---|
⑥口④口 |②---|
口⑤口③ |③-④-|
②口②口 |⑤-⑥-|
19
口③口② |--①-|
口①口④ |--②-|
④口①口 |③---|
②口③口 |④---|
20
①⑥①口 |①---|
口口⑤口 |②---|
口④口口 |③-④-|
口②③② |⑤-⑥-|
21
④口口④ |--①-|
①口口② |--②-|
①口口② |--③-|
口③③口 |④---|
22
口①①口 |①---|
口④口⑥ |②---|
③口⑤口 |③-④-|
②口口② |⑤-⑥-|
23
②口③口 |--①-|
④口①口 |--②-|
口①口④ |③---|
口③口② |④---|
24
口①口① |①---|
口口口口 |②---|
口口口口
②口②口

⑥⑥⑥⑥
口③口口
口口④口 |③-④-|
口⑤口口 |⑤-⑥-|
25
④④④④ |--①-|
①②②① |--②-|
①口口① |--③-|
③口口③ |④---|
26
口口口口 |①---|
②⑤口⑥ |②-③-|
④③口⑥ |④-⑤-|
口①①口 |--⑥-|
27
口①口口 |--①-|
②⑤口⑥ |②-③-|
④③口⑥ |④-⑤-|
口口口口 |--⑥-|
28
⑦①口⑦ |--①-|
②⑤口口 |②-③-|
④③口口 |④-⑤-|
口⑥⑥口 |⑥-⑦-|
29
④口口④ |--①-|
②口口① |--②-|
②口口① |--③-|
口③③口 |④---|
30
口口口口 |①---|
⑥口⑤② |②-③-|
⑥口③④ |④-⑤-|
①口口① |--⑥-|
31
口口①口 |--①-|
⑥口⑤② |②-③-|
⑥口③④ |④-⑤-|
口口口口 |--⑥-|
32
口口①口 |--①-|
口口⑤② |②-③-|
口口③④ |④-⑤-|
口⑥⑥口 |--⑥-|
33
②⑦⑦② |--①-|
口口口口 |--②-|
⑥⑤④③ |③④⑤⑥|
①口口① |⑦---|
34
口⑤口④ |①---|
⑥①口② |②--③|
口⑦③口 |④-⑤-|
口②口① |⑥-⑦-|
35
③口③口 |--①-|
口①①④ |--②-|
③口口口 |③---|
②④②④ |④---|
36
口①口口 |①---|
②口口口 |②--③|
口③口①
口口②口

④⑦⑦⑦
口口⑥口
口口⑤口 |④-⑤-|
口口口口 |⑥-⑦-|
37
口④④口 |--①-|
①口口② |--②-|
②口口① |--③-|
口③③口 |④---|
38
④口⑤口 |①---|
口②①⑥ |②--③|
口③⑦口 |④-⑤-|
①口口② |⑥-⑦-|
39
口③口③ |--①-|
④①①口 |--②-|
口口口③ |③---|
④②④② |④---|
40
①口①口 |①---|
口口口② |②--③|
口口③口
口②口口

⑦⑦⑦④
⑥口口口
⑤口口口 |④-⑤-|
口口口口 |⑥-⑦-|
41
口口⑤⑤ |--①-|
口①①① |②-③-|
口②③③ |--④-|
口③④④ |⑤---|
42
④口口⑤ |①---|
②⑥①口 |②--③|
口③⑦② |④-⑤-|
①口口口 |⑥-⑦-|
43
口③①③ |--①-|
④口口口 |--②-|
①口口③ |③---|
④②④② |④---|
44
口口①口 |①---|
口口口② |②--③|
①口③口
口②口口

⑦⑦⑦④
口⑥口口
口⑤口口 |④-⑤-|
口口口口 |⑥-⑦-|
45
口④④口 |--①-|
②口口① |--②-|
①口口② |--③-|
口③③口 |④---|
46
口⑤口④ |①---|
口①②⑥ |②--③|
口⑦③口 |④-⑤-|
②口口① |⑥-⑦-|
47
③口③口 |--①-|
①口口④ |--②-|
③口口① |③---|
②④②④ |④---|
48
口①口① |①---|
②口口口 |②--③|
口③口口
口口②口

④⑦⑦⑦
口口口⑥
口口口⑤ |④-⑤-|
口口口口 |⑥-⑦-|
49
⑤⑤口口 |--①-|
①①①口 |②-③-|
③③②口 |--④-|
④④③口 |⑤---|
50
口口口口 |①---|
⑥口②① |②---|
口③④⑤ |③④⑤-|
⑥口口① |⑥---|
51
口口口口 |①---|
口②口⑥ |②---|
⑤④③口 |③④⑤-|
口口①⑥ |⑥---|
52
口口口口 |①---|
⑥口②口 |②---|
口③④⑤ |③④⑤-|
⑥①口口 |⑥---|
53
口⑦⑦口 |①---|
口②口⑥ |②---|
⑤④③口 |③④⑤-|
口口①⑥ |⑥-⑦-|
54
口口口口 |①---|
③口②口 |②---|
④⑥⑥口 |③④⑤-|
⑤①口口 |⑥---|
55
口口口口 |①---|
口②口③ |②---|
口⑥⑥④ |③④⑤-|
口口①⑤ |⑥---|
56
口口口口 |①---|
③口②③ |②---|
④⑥⑥④ |③④⑤-|
⑤①口⑤ |⑥---|
57
口⑥⑥口 |①---|
③②口③ |②---|
④口口④ |③④⑤-|
⑤口①⑤ |⑥---|
58
口④口① |①---|
口口口⑤ |②---|
③②口口 |③-④-|
口口⑥口 |⑤-⑥-|
59
口口口口 |----|
口②①口 |----|
口口口口 |①---|
口①②口 |②---|
60
①口⑥口 |①---|
⑤口口口 |②---|
口口②④ |③-④-|
口③口口 |⑤-⑥-|
61
口口口口 |----|
口①①口 |--①-|
口②③口 |--②-|
口③②口 |③---|
62
①⑤⑧④ |①-②-|
口⑥⑦③ |③-④-|
①⑦⑥② |⑤-⑥-|
口⑧⑤① |⑦-⑧-|
63
⑤口⑧④ |①-②-|
口⑦⑦③ |③-④-|
口口⑥② |⑤-⑥-|
口口⑤① |⑦-⑧-|
64
⑧口⑬⑦ |①②③④|
⑥⑫⑪⑤ |⑤⑥⑦⑧|
④⑩⑨③ |⑨⑩⑪⑫|
②⑭⑭① |⑬-⑭-|
65
④口口③ |--①-|
②口口① |--②-|
②④③① |--③-|
口口口口 |④---|
66
口②②④ |①---|
②口⑤① |②--③|
②⑥口① |④-⑤-|
⑦①①③ |⑥-⑦-|
67
①④③④ |①-②-|
⑤口口② |--③-|
②口①④ |④---|
⑤③⑤口 |⑤---|
68
⑦⑦⑦④ |①---|
⑥①口② |②--③|
⑤口③口 |④-⑤-|
口②口① |⑥-⑦-|
69
口④④口 |--①-|
③①②③ |--②-|
③口口③ |--③-|
②④④① |④---|
70
④口口② |①---|
口①口⑤ |②--③|
口②⑥口 |④-⑤-|
③⑦口① |⑥-⑦-|
71
④③④② |①-②-|
口①①⑤ |--③-|
④②口③ |④---|
口⑤口⑤ |⑤---|
72
④⑦⑦⑦ |①---|
②口①⑥ |②--③|
口③口⑤ |④-⑤-|
①口②口 |⑥-⑦-|
73
⑤⑤口口 |--①-|
①①①口 |②-③-|
③③②口 |--④-|
④④③口 |⑤---|
74
口口①① |①---|
③④⑤⑥ |②---|
口口②② |③-④-|
口口口口 |⑤-⑥-|
75
口①口⑤ |--①-|
②口④口 |--②-|
口③口① |--③-|
口口②口 |④-⑤-|
76
口①①口 |①---|
口口口口 |②---|
口口口口
②口口②

⑥⑥⑥⑥
口口口③
口口④口 |③-④-|
口⑤口口 |⑤-⑥-|
77
口口口口 |--①-|
⑤口口口 |--②-|
①④口② |--③-|
①口③② |④-⑤-|
78
口口①② |①-②-|
口⑥⑤① |③-④-|
③⑧⑦口 |⑤-⑥-|
④③口口 |⑦-⑧-|
79
①口⑤⑤ |①-②-|
②口口③ |--③-|
②口口③ |--④-|
④④口① |⑤---|
80
②①口口 |①-②-|
①⑤⑥口 |③-④-|
口⑦⑧③ |⑤-⑥-|
口口③④ |⑦-⑧-|
81
⑤⑤口① |①-②-|
③口口② |--③-|
③口口② |--④-|
①口④④ |⑤---|
82
口口①③ |①---|
口②④① |②---|
③③②⑤ |③-④-|
①①⑥口 |⑤-⑥-|
83
⑦⑦②⑦ |①-②-|
③③口④ |③-④-|
⑤⑤②口 |⑤-⑥-|
①①口⑥ |⑦---|
84
④④④④ |①---|
②口口② |--②-|
②口口② |----|
③①①③ |③-④-|

accuracy: 100%
最終更新:2022年05月07日 03:35