アットウィキロゴ
ヤマトなでなで♡かぐや姫
ロマンチック♡Prim姫

BASIC

Level: 4
BPM: 160
Notes: 263

1
口口口口 |----|
口口口口 |----|
口口口口 |----|
口口口口 |----|
2
口口口口 |----|
口口口口 |----|
口口口口 |----|
口口口口 |----|
3
口口①① |①---|
口口口口 |----|
口口口口 |----|
口口口口 |----|
4
①①口口 |①---|
口口口口 |----|
口口口口 |----|
口口口口 |----|
5
口口①口 |①---|
口口②口 |②---|
口口③口 |③---|
口口④口 |④---|
6
口①口口 |①---|
口②口口 |②---|
口③口口 |③---|
口④口口 |④---|
7
口口口口 |①---|
④③②① |②---|
口口口口 |③---|
口口口口 |④---|
8
口口口口 |①---|
口口口口 |②---|
①②③④ |③---|
口口口口 |④---|
9
口口口口 |①---|
口口口口 |②---|
口口口口 |③---|
④③②① |④---|
10
口口口口 |①---|
①①②② |----|
口口口口 |②---|
口口口口 |----|
11
口口口口 |①---|
口口口口 |②---|
口口口口 |③---|
④③②① |④---|
12
口口口口 |①---|
口口口口 |②---|
④③②① |③---|
口口口口 |④---|
13
口口口口 |①---|
④③②① |②---|
口口口口 |③---|
口口口口 |④---|
14
口②口① |--①-|
口口口口 |②-③-|
口④口③ |④---|
口口口口 |----|
15
口口口口 |①---|
口口口口 |②---|
口口口口 |③---|
①②③④ |④---|
16
口口口口 |①---|
口口口口 |②---|
①②③④ |③---|
口口口口 |④---|
17
口口口口 |①---|
①②③④ |②---|
口口口口 |③---|
口口口口 |④---|
18
①口②口 |①-②-|
口口④④ |③---|
③口口口 |④---|
口口口口 |----|
19
口口口口 |①---|
口口口口 |②---|
口口口口 |③---|
④③②① |④---|
20
口口口口 |①---|
口口口口 |②---|
④③②① |③---|
口口口口 |④---|
21
口口口口 |①---|
④③②① |②---|
口口口口 |③---|
口口口口 |④---|
22
口②口① |①-②-|
口口⑤口 |③-④-|
口④口③ |⑤---|
口口口口 |----|
23
口口①口 |①---|
口口口② |----|
口口口口 |②---|
口口口口 |----|
24
口口口口 |①---|
口口口口 |----|
口口口① |②---|
口口②口 |----|
25
口①口口 |①---|
②口口口 |----|
口口口口 |②---|
口口口口 |----|
26
口口口口 |①---|
口口口口 |----|
①口口口 |②---|
口②口口 |----|
27
口口①口 |①---|
口口口② |----|
口口口口 |②---|
口口口口 |----|
28
口口口口 |①---|
口口口口 |----|
口口口① |②---|
口口②口 |----|
29
口口口口 |①---|
口①①口 |----|
口②②口 |②---|
口口口口 |----|
30
口④④口 |①---|
③口口③ |②---|
②口口② |③---|
口①①口 |④---|
31
口口口口 |①---|
口①①口 |----|
口口口口 |----|
口口口口 |----|
32
口口口口 |----|
①口口口 |----|
②口口口 |----|
口口口口 |①-②-|
33
口口口口 |①---|
口口口口 |②---|
口④口口 |③---|
①口②③ |④---|
34
口口口口 |①---|
②②①① |②---|
口口口口
口口口口

口口口口
口口口④
口③③⑤ |③---|
口口口口 |④-⑤-|
35
口口口口 |①---|
②口口口 |②-③-|
③口⑤口 |④---|
④口口① |⑤---|
36
④口③③ |①---|
⑤②口口 |②---|
口口口① |③---|
口口口口 |④-⑤-|
37
③③口④ |①---|
口口②⑤ |②---|
①口口口 |③---|
口口口口 |④-⑤-|
38
④口③③ |①---|
⑤②口口 |②---|
口口口① |③---|
口口口口 |④-⑤-|
39
口口口口 |①---|
口口口④ |②---|
①口②③ |③---|
口口口口 |④---|
40
口口③③ |①---|
口②①口 |②---|
口口口口 |③---|
口口口口 |----|
41
①口口口 |①---|
口口口口 |----|
口口口口 |----|
口口口口 |----|
42
口口口口 |①---|
①口口口 |----|
口口口口 |----|
口口口口 |----|
43
口口口口 |①---|
口口口口 |----|
①口口口 |----|
口口口口 |----|
44
口口口口 |①---|
口口口口 |----|
口口口口 |----|
①口口口 |----|
45
口口口① |①---|
口口口口 |----|
口口口口 |----|
口口口口 |----|
46
口口口口 |①---|
口口口① |----|
口口口口 |----|
口口口口 |----|
47
口口口口 |①---|
口口口口 |----|
口口口① |----|
口口口口 |----|
48
口口口口 |①---|
口口口口 |----|
口口口口 |----|
口口口① |----|
49
口口口口 |①---|
口口口口 |----|
口口口② |②---|
口口①口 |----|
50
口口②口 |①---|
口口口① |----|
口口口口 |②---|
口口口口 |----|
51
口口口口 |①---|
口口口口 |----|
②口口口 |②---|
口①口口 |----|
52
口②口口 |①---|
①口口口 |----|
口口口口 |②---|
口口口口 |----|
53
口口口口 |①---|
口口口口 |----|
口口②口 |②---|
口口口① |----|
54
口口口② |①---|
口口①口 |----|
口口口口 |②---|
口口口口 |----|
55
口口口口 |①---|
口②②口 |----|
口①①口 |②---|
口口口口 |----|
56
口①①口 |①---|
②口口② |②---|
③口口③ |③---|
口④④口 |④---|
57
口口口口 |①---|
口口口口 |----|
口①①口 |----|
口口口口 |----|
58
口口口口 |----|
口口口① |----|
口口口② |----|
口口口口 |①-②-|
59
口口口口 |①---|
口口口口 |②---|
口口④口 |③---|
③②口① |④---|
60
口口口口 |①---|
①①②② |②---|
口口口口
口口口口

口口口口
④口口口
⑤③③口 |③---|
口口口口 |④-⑤-|
61
口口口口 |①---|
口口口② |②-③-|
口口口③ |④---|
①⑤口④ |⑤---|
62
口口口口 |①---|
④口③③ |②---|
⑤②口口 |③---|
口口①口 |④-⑤-|
63
③③口口 |①---|
口口②④ |②---|
口口口⑤ |③---|
①口口口 |④-⑤-|
64
口口③③ |①---|
④②口口 |②---|
⑤口口口 |③---|
口口口① |④-⑤-|
65
口口口口 |①---|
口口口② |②-③-|
口口口③ |④---|
①⑤⑤④ |⑤---|
66
③③③③ |①---|
口②②口 |②---|
口①①口 |③---|
口口口口 |----|
67
口口口口 |①---|
口⑤⑤口 |②-③-|
口④③② |④---|
口①①口 |⑤---|
68
①②③口 |①-②-|
口④④口 |③---|
口④④口 |④---|
口口口口 |----|
69
口口口口 |①---|
⑤⑥口口 |②-③-|
口④③② |④---|
口①①口 |⑤-⑥-|
70
口④③② |①---|
口口①口 |②-③-|
口口口口 |④---|
口口口口 |----|
71
口口口口 |①---|
口口口口 |----|
口①①口 |----|
口①①口 |----|

accuracy: 100%
最終更新:2022年05月14日 16:32