アットウィキロゴ
ヤマトなでなで♡かぐや姫
ロマンチック♡Prim姫

ADVANCED

Level: 7
BPM: 160
Notes: 501

1
口口口口 |----|
口口口口 |----|
口口口口 |----|
口口口口 |----|
2
口口口口 |----|
口口口口 |----|
口口口口 |----|
口口口口 |----|
3
②口口口 |①-②-|
③口①④ |-③--|
口口口⑤ |④--⑤|
口口口⑥ |--⑥-|
4
口⑤②口 |①-②-|
口⑥③口 |-③--|
口①④口 |④--⑤|
口口口口 |--⑥-|
5
②口口① |①-②-|
④口口③ |③-④-|
⑥口口⑤ |⑤-⑥-|
⑧口口⑦ |⑦-⑧-|
6
口②①口 |①-②-|
口④③口 |③-④-|
口⑥⑤口 |⑤-⑥-|
口⑧⑦口 |⑦-⑧-|
7
口②口① |①-②-|
口④口③ |③-④-|
⑥口口⑤ |⑤--⑥|
⑦口口口 |--⑦-|
8
①口②口 |①-②-|
③⑦④⑧ |③-④-|
⑤口⑥口 |⑤-⑥-|
口口口口 |⑦-⑧-|
9
②口①口 |①-②-|
④⑧③⑦ |③-④-|
⑥口⑤口 |⑤-⑥-|
口口口口 |⑦-⑧-|
10
⑥⑥①① |①-②-|
④口③口 |-③--|
口④口③ |④--⑤|
②②⑤⑤ |-⑥--|
11
④口口① |①---|
③口口口 |②---|
②口口口 |③---|
①口口口 |④---|
12
口口口① |--①-|
口③②口 |②-③-|
④⑦⑥口 |④-⑤-|
口⑨⑧⑤ |⑥⑦⑧⑨|
13
口口口① |①---|
口口口② |②---|
口口口③ |③---|
口口口④ |④---|
14
③口口① |--①-|
口口口口 |②-③-|
口口口口 |④---|
②口口④ |----|
15
②口①口 |--①-|
④口③口 |②-③-|
口⑤口口 |④---|
口⑥口口 |⑤-⑥-|
16
口④③口 |①-②-|
口②口口 |③④--|
口口⑤口 |⑤---|
口口口① |----|
17
口口口口 |--①-|
⑥口⑤口 |②-③-|
口④③口 |④-⑤-|
⑦②①口 |⑥-⑦-|
18
③口口① |①-②-|
口⑤⑤口 |③---|
口④④口 |④---|
口口口② |⑤---|
19
口⑦⑥口 |--①-|
②口口① |②-③-|
④⑤口③ |④---|
口口口口 |⑤-⑥⑦|
20
①口口口 |①-②-|
口口⑤⑤ |③④--|
口口口② |⑤---|
口③④口 |----|
21
口⑤⑥口 |--①-|
④口口⑦ |②-③-|
口③②口 |④-⑤-|
口口口① |⑥-⑦-|
22
口⑦⑦口 |①-②③|
口③②口 |④⑤⑥-|
口⑤④⑥ |⑦---|
①⑧⑧① |⑧---|
23
口④③口 |--①-|
⑤口口② |②-③-|
⑥口口① |④-⑤-|
口⑦口口 |⑥-⑦-|
24
口口口口 |①---|
口口口① |②---|
口口口② |③---|
口口口③ |----|
25
口口⑦口 |--①-|
①口口⑥ |②-③-|
②口口⑤ |④-⑤-|
口③④口 |⑥-⑦-|
26
口口口口 |①---|
①④口④ |②---|
②②口口 |③---|
③口③口 |④---|
27
口口⑦口 |--①-|
①口口⑥ |②-③-|
②口口⑤ |④-⑤-|
口③④口 |⑥-⑦-|
28
口口口口 |①---|
①口口口 |②---|
口②口口 |③---|
③口③口 |----|
29
口⑦口口 |--①-|
⑥口口① |②-③-|
⑤口口② |④-⑤-|
口④③口 |⑥-⑦-|
30
口口口口 |①---|
口③口① |②---|
④口②口 |③---|
口口口口 |④---|
31
②口口① |①-②-|
④口口③ |③-④-|
⑥口口⑤ |⑤-⑥-|
⑧口口⑦ |⑦-⑧-|
32
口②①口 |①-②-|
口④③口 |③-④-|
⑦⑦⑤口 |⑤---|
口口⑥⑥ |⑥-⑦-|
33
口口②③ |①---|
口口①① |②-③-|
口口口口
口口口口

⑤④口口
口⑦⑥口
口⑦⑥口 |④-⑤-|
口口口口 |⑥-⑦-|
34
口②①口 |①---|
口口口口 |②---|
口口口口
口①②口

口口口③
口⑤口④
口口口口 |③---|
③⑤口④ |④-⑤-|
35
③⑤②⑤ |①---|
口口①④ |②-③-|
③⑥②⑥ |④---|
口口①④ |⑤-⑥-|
36
⑤口④口 |①--②|
①口①⑥ |③-④-|
口口口⑦ |⑤---|
口②③口 |⑥-⑦-|
37
口口口口 |①---|
②口口口 |②-③-|
③口口口
口口口①

口口口口
口口口口
口口口⑥ |④---|
④口口⑤ |⑤-⑥-|
38
口②③口 |①-②③|
④口口① |④-⑤-|
⑤口口⑧ |⑥---|
⑥口口⑦ |⑦-⑧-|
39
口②②口 |①--②|
口③③① |--③-|
口口口口
口口口口

口口口口
口口口⑤
⑥④④口 |④---|
口口口口 |⑤-⑥-|
40
口②③口 |①--②|
口口④口 |③-④-|
口口⑤口 |⑤---|
口口口① |----|
41
⑤口口② |①-②-|
⑥①口③ |-③--|
口口口④ |④--⑤|
口口口口 |--⑥-|
42
④口口口 |①-②-|
⑤口①⑥ |③--④|
口口②⑦ |--⑤-|
口口③口 |⑥-⑦-|
43
口口④口 |①-②-|
口②口口 |③--④|
口③口口
口口口①

口口口口
口口⑤口
口口口⑥ |--⑤-|
口口口⑦ |⑥-⑦-|
44
口口口③ |①-②-|
口①口口 |-③--|
口②口口
口口口口

口口口口
口⑥口④
口口口⑤ |④--⑤|
口口口口 |--⑥-|
45
②口口口 |①-②-|
③口口⑤ |-③--|
④①口⑥ |④--⑤|
口口口口 |--⑥-|
46
口口④口 |①-②-|
口口⑤口 |③--④|
⑥②口口 |--⑤-|
⑦③口① |⑥-⑦-|
47
②口口① |①-②-|
④口口③ |③-④-|
⑥口口⑤ |⑤-⑥-|
⑧口口⑦ |⑦-⑧-|
48
口②①口 |①-②-|
口④③口 |③-④-|
口⑥⑤口 |⑤-⑥-|
口⑧⑦口 |⑦-⑧-|
49
口③④口 |--①-|
②口口⑤ |②-③-|
①口口⑥ |④-⑤-|
口口⑦口 |⑥-⑦-|
50
口口口口 |①---|
①口口口 |②---|
②口口口 |③---|
③口口口 |----|
51
口④③口 |--①-|
⑤口口② |②-③-|
⑥口口① |④-⑤-|
口⑦口口 |⑥-⑦-|
52
③口口③ |①---|
口①①口 |②---|
口②②口 |--③-|
口口口口 |----|
53
口③④口 |--①-|
②口口⑤ |②-③-|
①口口⑥ |④-⑤-|
口口⑦口 |⑥-⑦-|
54
口口口口 |①---|
①口口口 |②---|
②口口口 |③---|
③口口口 |----|
55
口④③口 |--①-|
⑤口口② |②-③-|
⑥口口① |④-⑤-|
口⑦口口 |⑥-⑦-|
56
④口口① |①---|
口④①口 |②---|
口③②口 |③---|
③口口② |④---|
57
口口口口 |①---|
①口口① |----|
①口口① |----|
口口口口 |----|
58
口②①口 |①-②-|
口④③口 |③-④-|
⑦⑦⑤口 |⑤---|
口口⑥⑥ |⑥-⑦-|
59
口口②③ |①---|
口口①① |②-③-|
口口口口
口口口口

⑤④口口
口⑦⑥口
口⑦⑥口 |④-⑤-|
口口口口 |⑥-⑦-|
60
口②①口 |①---|
口口口口 |②---|
口口口口
口①②口

口口口③
口⑤口④
口口口口 |③---|
③⑤口④ |④-⑤-|
61
③⑤②⑤ |①---|
口口①④ |②-③-|
③⑥②⑥ |④---|
口口①④ |⑤-⑥-|
62
口口口口 |①--②|
①口①⑥ |③-④-|
⑤口④⑦ |⑤---|
口②③口 |⑥-⑦-|
63
口口口口 |①---|
②口口口 |②-③-|
③口口口
口口口①

口口口口
口口口口
口口口⑥ |④---|
④口口⑤ |⑤-⑥-|
64
口②③口 |①-②③|
④口口① |④-⑤-|
⑤口口⑧ |⑥---|
⑥口口⑦ |⑦-⑧-|
65
口②②口 |①--②|
口③③① |--③-|
口口口口
口口口口

⑤口口口
口口口⑥
⑦④④口 |④-⑤-|
口口口口 |⑥-⑦-|
66
口②③口 |①--②|
口口口口 |③-④-|
口口④口 |⑤---|
口口⑤① |----|
67
口③②口 |①--②|
口⑦⑥④ |③-④-|
①⑧口口 |⑤--⑥|
口⑤口口 |⑦-⑧-|
68
④口口④ |①---|
③口口口 |②-③-|
口口②口 |④---|
①口口① |----|
69
⑧①①⑧ |①-②-|
⑦②②⑦ |③-④-|
⑥③③⑥ |⑤-⑥-|
⑤④④⑤ |⑦-⑧-|
70
口⑦⑦口 |①②③④|
⑧②①⑧ |⑤-⑥-|
⑧④③⑧ |⑦---|
⑥⑥⑤⑤ |⑧---|
71
口口口口 |----|
口口口口 |----|
口口口口 |----|
口口口口 |----|

accuracy: 100%
最終更新:2022年05月14日 17:43