アットウィキロゴ
ヤマトなでなで♡かぐや姫
ロマンチック♡Prim姫

EXTREME

Level: 9.5
BPM: 160
Notes: 670

1
口口口口 |----|
口口口口 |----|
口口口口 |----|
口口口口 |----|
2
口口口口 |----|
口口口口 |----|
口口口口 |----|
口口口口 |----|
3
口口口② |①-②-|
口①口③ |-③--|
口口口④ |④--⑤|
口口⑥⑤ |--⑥-|
4
②口口口 |①-②-|
③口①口 |-③--|
④口口口 |④--⑤|
⑤⑥口口 |--⑥-|
5
②⑩⑨① |①②③④|
④⑫⑪③ |⑤⑥⑦⑧|
⑥⑭⑬⑤ |⑨⑩⑪⑫|
⑧⑯⑮⑦ |⑬⑭⑮⑯|
6
②⑬⑨① |①②③④|
④⑭⑩③ |⑤⑥⑦⑧|
⑥⑮⑪⑤ |⑨⑩⑪⑫|
⑧⑯⑫⑦ |⑬⑭⑮⑯|
7
②口口① |①-②-|
口口④③ |③-④-|
⑥口口⑤ |⑤-⑥-|
口口⑧⑦ |⑦-⑧-|
8
口②口① |①-②-|
口口④③ |③-④-|
口⑥口⑤ |⑤-⑥-|
口口⑧⑦ |⑦-⑧-|
9
②口口① |①-②-|
口口④③ |③-④-|
口⑥口⑤ |⑤-⑥-|
口口⑧⑦ |⑦-⑧-|
10
①⑤⑤② |①-②-|
①④③② |-③--|
④⑥⑥③ |④--⑤|
口⑦⑦口 |-⑥-⑦|
11
口口口④ |①---|
口口口③ |②---|
口口口② |③---|
口口口① |④---|
12
②③口口 |①-②-|
④⑤口⑤ |③-④-|
⑥⑧⑦③ |⑤-⑥-|
口⑩⑨① |⑦⑧⑨⑩|
13
口口口④ |①---|
口口口③ |②---|
口口口② |③---|
①口口① |④---|
14
①①口口 |--①-|
口②②口 |②-③-|
口口③③ |④---|
口④④口 |----|
15
口口口① |①-②-|
口⑥口③ |③-④-|
④⑤⑦⑤ |⑤---|
②③口口 |⑥-⑦-|
16
口口口① |①-②-|
口⑥⑥③ |③④--|
⑤口口⑤ |⑤---|
②③④口 |⑥---|
17
⑦⑦③② |①-②-|
⑤口⑤④ |③-④-|
③⑧⑧⑥ |⑤-⑥-|
①口口口 |⑦-⑧-|
18
口⑤⑤口 |①-②-|
④口口④ |③④--|
口⑥⑥口 |⑤---|
②③③① |⑥---|
19
①⑧⑦口 |①-②-|
③口口⑥ |③-④-|
⑤口⑤④ |⑤---|
⑥口③② |⑥-⑦⑧|
20
①口口口 |①-②-|
③⑥⑥口 |③④--|
口⑤⑤口 |⑤---|
口④③② |⑥---|
21
口口口① |①-②-|
口口口③ |③-④-|
④口口口
②③口口

口口口口
⑥⑤⑤口
口⑦⑦口 |⑤-⑥-|
⑧口口⑧ |⑦-⑧-|
22
②①①③ |①-②③|
口④口口 |④⑤⑥-|
口口口⑤
口⑥口口

口⑧⑧口
口口口口
口⑦⑦口 |⑦---|
口口口口 |⑧---|
23
口口口口 |--①-|
①②③④ |②-③-|
口口口⑤ |④-⑤-|
口口⑦⑥ |⑥-⑦-|
24
口口口口 |①-②-|
④⑤口口 |③-④-|
③口口口 |⑤---|
②①口口 |----|
25
④③②① |--①-|
⑤口口口 |②-③-|
⑥⑦口口 |④-⑤-|
口口口口 |⑥-⑦-|
26
口口口④ |①-②-|
口口口③ |③-④-|
口口①②
口口口口

口口口口
口⑤⑤口
口⑥⑥口 |⑤---|
口口口口 |⑥---|
27
口口口口 |--①-|
口口口① |②-③-|
⑦口口② |④-⑤-|
⑥⑤④③ |⑥-⑦-|
28
口口口口 |①-②-|
①②③④ |③-④-|
口⑤⑤口 |⑤---|
口口口口 |----|
29
口⑤④③ |--①-|
口⑥⑦② |②-③-|
口口口① |④-⑤-|
口口口口 |⑥-⑦-|
30
①③④② |①---|
口口口口 |②---|
口口口口 |③---|
②④③① |④---|
31
②⑩⑨① |①②③④|
④⑫⑪③ |⑤⑥⑦⑧|
⑥⑭⑬⑤ |⑨⑩⑪⑫|
⑧⑯⑮⑦ |⑬⑭⑮⑯|
32
②口⑨① |①②③④|
④⑩⑬③ |⑤⑥⑦⑧|
⑥⑪⑭⑤ |⑨-⑩⑪|
⑧⑫口⑦ |⑫-⑬⑭|
33
②③⑥口 |①---|
口口口④ |②-③-|
④⑤⑦② |④-⑤-|
口口①口 |⑥-⑦-|
34
②③③① |①---|
④口④口 |②---|
口⑤⑤口 |③---|
②③③① |④-⑤-|
35
②②口① |①---|
口③口② |②-③-|
口口口口
①口口口

口口口口
口口口口
④口⑥④ |④---|
⑤⑤口⑤ |⑤-⑥-|
36
①口④④ |①--②|
③③口口 |③-④-|
口①口口
口口②口

⑦⑤口口
口口口⑤
⑤口口⑥ |⑤---|
口口口口 |⑥-⑦-|
37
口⑤⑤② |①--②|
口④④⑦ |③-④-|
口③③⑥ |⑤---|
口①①口 |⑥-⑦-|
38
②⑥⑥① |①-②③|
③⑤⑤口 |④-⑤-|
⑧④④⑧ |⑥---|
⑦口口⑦ |⑦-⑧-|
39
②④④③ |①--②|
①口口① |--③-|
⑤口口⑤ |④---|
⑥③②⑥ |⑤-⑥-|
40
③⑤⑤③ |①--②|
④①①④ |③-④-|
口⑤⑤口 |⑤---|
口②②口 |----|
41
⑤口口口 |①-②-|
④口①口 |-③--|
③口⑥口 |④--⑤|
②口口口 |--⑥-|
42
口①口口 |①-②-|
口②口⑤ |③--④|
⑦口口④ |--⑤-|
⑥口口③ |⑥-⑦-|
43
②口口口 |①-②-|
①③口口 |③--④|
口⑦口⑤ |--⑤-|
口⑥口④ |⑥-⑦-|
44
口口口口 |①-②-|
口口①口 |-③--|
③口口口
②口口口

口口口口
④⑤⑧口
口⑥⑨口 |④-⑤⑥|
口⑦口口 |⑦-⑧⑨|
45
⑤口口口 |①-②-|
④⑥口口 |-③--|
③口口口 |④--⑤|
②口①口 |--⑥-|
46
口口口口 |①-②-|
口口③口 |③--④|
口①口口
口②口④

口口口口
口⑦口口
口⑥⑤口 |--⑤-|
口口口口 |⑥-⑦-|
47
②⑩⑨① |①②③④|
④⑫⑪③ |⑤⑥⑦⑧|
⑥⑭⑬⑤ |⑨⑩⑪⑫|
⑧⑯⑮⑦ |⑬⑭⑮⑯|
48
②⑬⑨① |①②③④|
④⑭⑩③ |⑤⑥⑦⑧|
⑥⑮⑪⑤ |⑨⑩⑪⑫|
⑧⑯⑫⑦ |⑬⑭⑮⑯|
49
口口口⑤ |--①-|
④口口③ |②-③-|
②⑥⑦① |④-⑤-|
口口口口 |⑥-⑦-|
50
口③④口 |①-②-|
口①②口 |③-④-|
⑤口口⑤ |⑤---|
口口口口 |----|
51
口⑥⑦口 |--①-|
口口口⑤ |②-③-|
④口口③ |④-⑤-|
②口口① |⑥-⑦-|
52
⑤口口⑤ |①-②-|
口①②口 |③-④-|
口③④口 |--⑤-|
口口口口 |----|
53
口口口⑦ |--①-|
口口⑥⑤ |②-③-|
口口④③ |④-⑤-|
口口②① |⑥-⑦-|
54
④口口口 |①-②-|
口③口⑤ |③-④-|
口②口⑤ |⑤---|
①口口口 |----|
55
口④口⑤ |--①-|
口口③⑥ |②-③-|
口口②⑦ |④-⑤-|
口①口口 |⑥-⑦-|
56
④②①③ |①---|
口口口口 |②---|
口口口口 |③---|
①③④② |④---|
57
口口口口 |①---|
口①①口 |----|
①口口① |----|
口口口口 |----|
58
②口⑨① |①②③④|
④⑩⑬③ |⑤⑥⑦⑧|
⑥⑪⑭⑤ |⑨-⑩⑪|
⑧⑫口⑦ |⑫-⑬⑭|
59
②③⑥口 |①---|
口口⑦④ |②-③-|
④⑤口② |④-⑤-|
口口①口 |⑥-⑦-|
60
②③③① |①---|
④⑤⑤④ |②---|
口④④口 |③---|
②③③① |④-⑤-|
61
①④②① |①---|
口口⑤⑤ |②-③-|
④口口② |④---|
③⑤⑥③ |⑤-⑥-|
62
①⑤④④ |①--②|
③③⑥⑥ |③-④-|
⑤①口⑦ |⑤-⑥-|
⑦⑧口② |⑦-⑧-|
63
口④④口 |①---|
口③③⑥ |②-③-|
口②②⑤ |④---|
口口①口 |⑤-⑥-|
64
②⑥⑥① |①-②③|
③⑤⑤口 |④-⑤-|
⑧④④⑧ |⑥---|
⑦口口⑦ |⑦-⑧-|
65
②④④③ |①--②|
①口口① |--③-|
⑥⑤⑤⑥ |④-⑤-|
⑦③②⑦ |⑥-⑦-|
66
③⑤⑤③ |①-②-|
④①①④ |③-④-|
口⑤⑤口 |⑤---|
口②②口 |----|
67
③⑤③⑤ |①--②|
⑧②⑧口 |③-④-|
④⑥④口 |⑤--⑥|
⑦①⑦① |⑦-⑧-|
68
①⑤①⑤ |①-②-|
口③口③ |③-④-|
②口②口 |⑤---|
⑤④⑤④ |----|
69
②口②口 |①-②-|
口③口③ |③-④-|
④①④①
口口口口

口⑦口⑦
口口口口
口⑧口⑧ |⑤--⑥|
口⑤⑥⑤ |⑦-⑧-|
70
⑥口⑥口 |①②③④|
④②①③ |⑤-⑥-|
口口⑤口
口口口口

口⑧口⑧
口口⑧口
口⑧口⑧ |⑦---|
口⑦口⑦ |⑧---|
71
口口口口 |----|
口口口口 |----|
口口口口 |----|
口口口口 |----|

accuracy: 100%
最終更新:2022年05月14日 17:43