アットウィキロゴ
Shout!!
Qrispy Joybox feat.mao

BASIC

Level: 2
BPM: 175
Notes: 200

1
口口口口 |----|
口口口口 |----|
口口口口 |----|
口口口口 |----|
2
口口口口 |----|
口口口口 |----|
口口口口 |----|
口口口口 |----|
3
口口口口 |①---|
口口口口 |----|
口口②口 |----|
口①口口 |--②-|
4
口口口口 |----|
口口口口 |----|
口口口口 |----|
口口口口 |----|
5
口口②口 |①---|
口①口口 |----|
口口口口 |----|
口口口口 |--②-|
6
口口口口 |----|
口口口口 |----|
口口口口 |----|
口口口口 |----|
7
口①口口 |①---|
口口②口 |----|
口口口口 |----|
口口口口 |--②-|
8
口口口口 |----|
口口口口 |----|
①口口① |----|
口口口口 |--①-|
9
口口口口 |----|
口口口口 |----|
口口口口 |----|
口口口口 |----|
10
口口口口 |----|
口口口口 |----|
口口口口 |----|
口口口口 |----|
11
口口口口 |①---|
口口口口 |----|
口②②口 |----|
口①①口 |--②-|
12
口口口口 |----|
口口口口 |----|
口口口口 |----|
口口口口 |----|
13
口②②口 |①---|
口①①口 |----|
口口口口 |----|
口口口口 |--②-|
14
口口口口 |----|
口口口口 |----|
口口口口 |----|
口口口口 |----|
15
口口口口 |①---|
①①①① |----|
口口口口 |----|
口口口口 |----|
16
口口口口 |----|
口口口口 |----|
口口口口 |----|
口口口口 |----|
17
口口口口 |①---|
口口口口 |----|
口口口口 |----|
①口口① |----|
18
口口口口 |①---|
口④③口 |②---|
口①②口 |③---|
口口口口 |④---|
19
口口口口 |①---|
①口口② |----|
口口口口 |----|
口口口口 |②---|
20
口口口口 |----|
口口口口 |----|
口①①口 |①---|
口口口口 |----|
21
口口口口 |①---|
①口口② |----|
口口口口 |----|
口口口口 |②---|
22
口口口口 |----|
口口口口 |----|
口①①口 |①---|
口口口口 |----|
23
口口口口 |①---|
口口口口 |----|
口口口① |②---|
口口②口 |----|
24
口口口口 |①---|
口口口口 |----|
②口口口 |②---|
口①口口 |----|
25
口口口口 |①---|
口①②口 |----|
口口口口 |②---|
口口口口 |----|
26
口口口口 |----|
口口口口 |----|
口口口口 |----|
口口口口 |----|
27
口口②口 |①---|
口口口① |----|
口口口口 |②---|
口口口口 |----|
28
口①口口 |①---|
②口口口 |----|
口口口口 |②---|
口口口口 |----|
29
口口口口 |①---|
口口口口 |----|
口①②口 |②---|
口口口口 |----|
30
口口口口 |----|
口口口① |----|
口口口口 |----|
口口口口 |①---|
31
口口口口 |----|
①口口口 |----|
口口口口 |----|
口口口口 |①---|
32
口口口口 |----|
口口口① |----|
口口口口 |①---|
口口口口 |----|
33
口②口口 |①---|
口口①口 |----|
口口口口 |②---|
口口口口 |----|
34
口口②口 |①---|
口①口口 |----|
口口口口 |②---|
口口口口 |----|
35
口口口口 |----|
口②①口 |①---|
口口口口 |----|
口口口口 |②---|
36
口口口口 |----|
口口口口 |----|
口口口口 |----|
口口口口 |----|
37
口口口口 |①---|
口口口口 |----|
①②②① |②---|
口口口口 |----|
38
口口口口 |①---|
①②②① |----|
口口口口 |②---|
口口口口 |----|
39
口③②① |----|
口口口口 |①---|
口口口口 |②---|
口口口口 |③---|
40
①口口口 |①---|
②口口口 |②---|
③口口口 |③---|
④口口口 |④---|
41
口口口口 |①---|
口口口口 |②---|
口口口④ |③---|
口①②③ |④---|
42
口口口② |①---|
口口口① |②---|
口口口口 |----|
口口口口 |----|
43
①②③④ |①---|
口口口口 |②---|
口口口口 |③---|
口口口口 |④---|
44
口口口口 |①---|
④③②① |②---|
口口口口 |③---|
口口口口 |④---|
45
口口口口 |①---|
口口口口 |--②-|
③②②③ |----|
①口口① |③---|
46
口③③口 |--①-|
②①①② |----|
口口口口 |②---|
口口口口 |--③-|
47
①口口① |----|
口口口口 |①---|
口口口口 |----|
口口口口 |----|
48
口口口口 |--①-|
口①①口 |----|
口①①口 |----|
口口口口 |----|
49
口口口口 |①---|
口口口口 |②---|
口③④口 |③---|
口①②口 |④---|
50
口③④口 |①---|
口①②口 |②---|
口口口口 |③---|
口口口口 |④---|
51
①口口② |①---|
③口口④ |②---|
口口口口 |③---|
口口口口 |④---|
52
口口口口 |①---|
口口口口 |----|
口①①口 |----|
口口口口 |----|
53
口①②口 |①---|
口③④口 |②---|
口口口口 |③---|
口口口口 |④---|
54
口口口口 |①---|
口口口口 |②---|
口①②口 |③---|
口③④口 |④---|
55
口口口口 |①---|
口口口口 |----|
①口口① |----|
口口口口 |----|
56
口口口口 |----|
口口口口 |----|
口口口口 |----|
口口口口 |----|
57
口口口口 |①---|
口口口口 |②---|
口③④口 |③---|
口①②口 |④---|
58
口③④口 |①---|
口①②口 |②---|
口口口口 |③---|
口口口口 |④---|
59
①口口① |①---|
口口口口 |----|
②口口② |----|
口口口口 |--②-|
60
口口口口 |----|
口口口口 |----|
口口口口 |----|
口口口口 |----|
61
口口口口 |①---|
口①①口 |----|
口口口口 |----|
口口口口 |----|
62
口口口口 |----|
口口口口 |----|
口口口口 |----|
口口口口 |----|
63
口口口口 |①---|
口①①口 |----|
口口口口 |----|
口口口口 |----|
64
①口口③ |①---|
口②④口 |②---|
口口口口 |③---|
口口口口 |④---|
65
口口口口 |①---|
口口口口 |②---|
口③④口 |③---|
口①②口 |④---|
66
口③④口 |①---|
口①②口 |②---|
口口口口 |③---|
口口口口 |④---|
67
①口口② |①---|
③口口④ |②---|
口口口口 |③---|
口口口口 |④---|
68
口口口口 |①---|
口口口口 |----|
口①①口 |----|
口口口口 |----|
69
口①②口 |①---|
口③④口 |②---|
口口口口 |③---|
口口口口 |④---|
70
口口口口 |①---|
口口口口 |②---|
口①②口 |③---|
口③④口 |④---|
71
口口口口 |①---|
口口口口 |----|
①口口① |----|
口口口口 |----|
72
口口口口 |----|
口口口口 |----|
口口口口 |----|
口口口口 |----|
73
口口口口 |①---|
口口口口 |②---|
口③④口 |③---|
口①②口 |④---|
74
口③④口 |①---|
口①②口 |②---|
口口口口 |③---|
口口口口 |④---|
75
①口口① |①---|
口口口口 |----|
②口口② |----|
口口口口 |--②-|
76
口口口口 |----|
口口口口 |----|
口口口口 |----|
口口口口 |----|
77
口口口口 |①---|
①①①① |----|
口口口口 |----|
口口口口 |----|
78
口口口口 |----|
口口口口 |----|
口口口口 |----|
口口口口 |----|
79
口口口口 |①---|
口①①口 |----|
口口口口 |----|
口口口口 |----|
80
①口口③ |①---|
口②④口 |②---|
口口口口 |③---|
口口口口 |④---|
81
口口口口 |①---|
②口口① |----|
口口口口 |----|
口口口口 |②---|
82
口口口口 |----|
口口口口 |----|
口①①口 |①---|
口口口口 |----|
83
口口口口 |①---|
②口口① |----|
口口口口 |----|
口口口口 |②---|
84
口口口口 |----|
口口口口 |----|
口①①口 |①---|
口口口口 |----|

accuracy: 100%
最終更新:2022年05月05日 17:50