アットウィキロゴ
Shout!!
Qrispy Joybox feat.mao

ADVANCED

Level: 5
BPM: 175
Notes: 398

1
口口口口 |----|
口口口口 |----|
口口口口 |----|
口口口口 |----|
2
口口口口 |----|
口口口口 |----|
口口口口 |----|
口口口口 |----|
3
②口口④ |①---|
口③③口 |②---|
口口口口 |--③-|
口①①口 |--④-|
4
口口口④ |----|
口③口口 |①-②-|
口①口口 |--③-|
口口②口 |--④-|
5
口①口口 |----|
口口②口 |①-②-|
③口口口 |--③-|
口口口④ |--④-|
6
口②口口 |----|
口口口口 |----|
口口①口 |--①-|
口口口口 |--②-|
7
③口口① |----|
口②②口 |①---|
口口口口 |--②-|
口口口口 |--③-|
8
口③③口 |----|
④④④④ |①-②-|
口口②口 |--③-|
口①口口 |--④-|
9
口口口口 |----|
口口口口 |----|
口口口口 |----|
口口口口 |----|
10
口口口口 |----|
①②③④ |----|
口口口口 |①-②-|
口口口口 |③-④-|
11
④口口② |①---|
口③③口 |②---|
口②④口 |--③-|
口①①口 |--④-|
12
口②①口 |----|
口口口③ |①-②-|
口口口③ |--③-|
口口口口 |----|
13
④口口④ |----|
口②③口 |①---|
口口口口 |②-③-|
①口口① |--④-|
14
口口口口 |--①-|
口口③口 |----|
①口④① |--②-|
口②口口 |③-④-|
15
③口口口 |①---|
口口口口 |--②-|
口口口口 |----|
①口口② |③---|
16
口口口① |--①-|
口②③口 |----|
口口口口 |②---|
口口口口 |③---|
17
口口口口 |①---|
口③③口 |--②-|
口口口口 |----|
①①②② |③---|
18
口口口口 |--①-|
口⑥⑤④ |②-③-|
①②③口 |④-⑤-|
口口口口 |⑥---|
19
①②⑤④ |①-②-|
口口口口 |----|
口③③口 |③---|
口口口口 |④-⑤-|
20
口口口口 |----|
口口口口 |----|
①①①① |①---|
口口口口 |----|
21
①②⑤④ |①-②-|
口口口口 |----|
口③③口 |③---|
口口口口 |④-⑤-|
22
口口口口 |----|
口口口口 |----|
①①①① |①---|
口口口口 |----|
23
①口口口 |----|
口口③口 |①---|
口④②口 |②-③-|
口口口口 |--④-|
24
口口口口 |----|
口口③口 |①---|
口口口② |②---|
口口①口 |③---|
25
①口口口 |①---|
口①口口 |----|
②口口口 |②---|
口②口口 |----|
26
口口口口 |----|
口口口口 |----|
口①①口 |①---|
口口口口 |----|
27
口口口① |----|
口③口口 |①---|
口②④④ |②-③-|
口口口口 |--④-|
28
口口口口 |----|
口③口口 |①---|
②口口口 |②---|
口①口口 |③---|
29
口口口① |①---|
口口①口 |----|
口口口② |②---|
口口②口 |----|
30
口口②口 |----|
口口③口 |----|
口①①口 |①---|
口口口口 |②-③-|
31
口①口口 |----|
口②口口 |----|
口口口口 |----|
口口口口 |①-②-|
32
口口口② |----|
口口口① |----|
口口口口 |①-②-|
口口口口 |----|
33
口口口口 |----|
口⑤口口 |①-②-|
⑤口口口 |③-④-|
④③②① |--⑤-|
34
口口口口 |--①-|
口口②口 |--②-|
口①①② |--③-|
口③③口 |----|
35
口①③口 |----|
口②④口 |①-②-|
口口口口 |----|
口口口口 |③-④-|
36
口口口口 |----|
①口口① |----|
口口口口 |①---|
口口口口 |----|
37
口口口① |①---|
口口口③ |②-③-|
口②⑤⑤ |--④-|
④口口口 |⑤---|
38
口口口口 |--①-|
口口口口 |----|
①①口口 |②---|
口②②口 |----|
39
口口口口 |----|
口口③④ |①-②-|
①②口口 |③-④-|
⑤口口口 |--⑤-|
40
②口①④ |--①-|
口口口口 |--②-|
口口口口 |--③-|
口口③口 |--④-|
41
口口⑥⑤ |----|
④③口口 |①-②-|
口口②① |③-④-|
口口口口 |⑤-⑥-|
42
①口口口 |--①-|
口口口口 |----|
口口口口 |----|
口②②① |②---|
43
口①口① |----|
口口口口 |①---|
口②口② |--②-|
口口口口 |----|
44
口口口口 |①---|
①口①口 |--②-|
口③③口 |----|
②口②口 |③---|
45
口口口口 |----|
口⑥⑤口 |①-②-|
①口口④ |③-④-|
口②③口 |⑤-⑥-|
46
口口口口 |--①-|
④口口④ |②-③-|
口②①口 |----|
③口口③ |--④-|
47
①①①① |----|
口口口口 |①---|
口④⑤口 |②-③-|
口②③口 |④-⑤-|
48
①口口① |--①-|
口①①口 |----|
口口口口 |----|
口口口口 |----|
49
②口口④ |①---|
口③③口 |②---|
④口口② |--③-|
口①①口 |--④-|
50
④口口④ |----|
③③口口 |①-②-|
口①口口 |--③-|
口口②口 |--④-|
51
口①口口 |----|
口口②口 |①-②-|
③③口口 |--③-|
口口④④ |--④-|
52
口②②口 |----|
口口口口 |----|
口①①口 |--①-|
口口口口 |--②-|
53
③口口① |----|
口②②口 |①---|
①口口③ |--②-|
口口口口 |--③-|
54
口③③口 |----|
④④④④ |①-②-|
口口②口 |--③-|
口①口口 |--④-|
55
③口口口 |①---|
口口口口 |--②-|
口口口口 |----|
①口口② |③---|
56
口口口① |--①-|
口②③口 |----|
口口口口 |②---|
口口口口 |③---|
57
④口口② |①---|
口③③口 |②---|
口②④口 |--③-|
口①①口 |--④-|
58
口②①口 |----|
口口口③ |①-②-|
口口口③ |--③-|
口口口口 |----|
59
④口口④ |----|
口②③口 |①---|
口口口口 |②-③-|
①口口① |--④-|
60
口口口口 |--①-|
口口③口 |----|
①口④① |--②-|
口②口口 |③-④-|
61
③口口口 |①---|
口口口口 |--②-|
口口口口 |----|
①口口② |③---|
62
口口口① |--①-|
口②③口 |----|
口口口口 |②---|
口口口口 |③---|
63
口口口口 |①---|
口③③口 |--②-|
口口口口 |----|
①①②② |③---|
64
口口口口 |--①-|
口⑥⑤④ |②-③-|
①②③口 |④-⑤-|
口口口口 |⑥---|
65
③⑥⑥④ |①---|
口口口口 |②-③-|
⑤口口② |④-⑤-|
口①①口 |--⑥-|
66
④口口④ |----|
③③口口 |①-②-|
口①口口 |--③-|
口口②口 |--④-|
67
口①口口 |----|
口口②口 |①-②-|
③③口口 |--③-|
口口④④ |--④-|
68
口口口口 |----|
口口口口 |----|
口②①口 |--①-|
口①②口 |--②-|
69
③口口② |----|
口⑤⑤口 |①-②-|
①口口④ |③-④-|
口口口口 |--⑤-|
70
口③③口 |----|
④④④④ |①-②-|
口口②口 |--③-|
口①口口 |--④-|
71
③口口口 |①---|
口口口口 |--②-|
口口口口 |----|
①口口② |③---|
72
口口口① |--①-|
口②③口 |----|
④口口口 |②-③-|
口口口口 |--④-|
73
④口口③ |①---|
口⑥⑥口 |②-③-|
口②⑤口 |④-⑤-|
口①①口 |--⑥-|
74
口②①口 |----|
口口口③ |①-②-|
口口口③ |--③-|
口口口口 |----|
75
④口口④ |----|
口②③口 |①---|
口口口口 |②-③-|
①口口① |--④-|
76
口口口口 |--①-|
口口③口 |----|
①口④① |--②-|
口②口口 |③-④-|
77
③口口口 |①---|
口口口口 |--②-|
口口口口 |----|
①口口② |③---|
78
口口口① |--①-|
口②③口 |----|
口口口口 |②---|
口口口口 |③---|
79
口口口口 |①---|
口③③口 |--②-|
口口口口 |----|
①①②② |③---|
80
口口口口 |--①-|
口⑥⑤④ |②-③-|
①②③口 |④-⑤-|
口口口口 |⑥---|
81
①②⑤④ |①-②-|
口口口口 |----|
口③③口 |③---|
口口口口 |④-⑤-|
82
口口口口 |----|
口口口口 |----|
①①①① |①---|
口口口口 |----|
83
①②⑤④ |①-②-|
口口口口 |----|
口③③口 |③---|
口口口口 |④-⑤-|
84
口口口口 |----|
口口口口 |----|
①①①① |①---|
口口口口 |----|

accuracy: 100%
最終更新:2022年05月05日 17:50