アットウィキロゴ
Shout!!
Qrispy Joybox feat.mao

EXTREME

Level: 8
BPM: 175
Notes: 659

1
口口口口 |----|
口口口口 |----|
口口口口 |----|
口口口口 |----|
2
口口口口 |----|
口口口口 |----|
口口口口 |----|
口口口口 |----|
3
④口口④ |①---|
口口口口 |②---|
口②③② |--③-|
①口口口 |--④-|
4
④口④口 |----|
口③口① |①-②-|
口口口口 |--③-|
口②口口 |--④-|
5
口口口口 |----|
口口口① |①-②-|
口②口③ |--③-|
④口口口 |--④-|
6
口口口口 |----|
口②②口 |----|
口口口口 |--①-|
口①①口 |--②-|
7
①口口① |----|
③口口② |①---|
口口口口 |②-③-|
④口口口 |--④-|
8
口③③口 |----|
④口口④ |①-②-|
口②②口 |--③-|
④口①④ |--④-|
9
口口口口 |----|
口口口口 |----|
口口口口 |----|
口口口口 |----|
10
⑧口①⑦ |----|
②④口③ |----|
⑥口⑤口 |①②③④|
口口口口 |⑤⑥⑦⑧|
11
⑤⑤④⑤ |①---|
③口②口 |②---|
口②④② |③-④-|
①口②① |--⑤-|
12
⑦口口⑥ |----|
③①③① |①-②-|
⑤口④口 |--③-|
口②口② |④⑤⑥⑦|
13
④①④口 |----|
②①口④ |①---|
口①③③ |②-③-|
口①口口 |--④-|
14
口⑤口口 |--①-|
口口⑥口 |②---|
口①口④ |③-④-|
①③②① |⑤-⑥-|
15
⑦口口口 |①-②-|
⑦③口② |③-④-|
①③④⑧ |⑤-⑥-|
⑤口⑥口 |⑦-⑧-|
16
口③②口 |①-②-|
口⑥⑤④ |③-④-|
③⑤⑥口 |⑤---|
口①口口 |⑥---|
17
口⑧⑦口 |①-②-|
⑥口口③ |③-④-|
⑤口口② |⑤-⑥-|
④④①① |⑦-⑧-|
18
口口口③ |--①-|
口④②口 |②-③-|
口①⑤口 |④-⑤-|
口⑥口口 |⑥---|
19
口口口口 |①-②-|
④⑤②① |----|
④③③① |③---|
口口口口 |④-⑤-|
20
口③口① |----|
口口口口 |①---|
口②②口 |②-③-|
口口口口 |----|
21
口口口口 |①-②-|
④⑤②① |----|
④③③① |③---|
口口口口 |④-⑤-|
22
口③口① |----|
口口口口 |①---|
口②②口 |②-③-|
口口口口 |----|
23
口口口口 |①---|
①口②① |②---|
①口口①
口口②口

口④③口
口口口口
口口口⑤ |③-④-|
口⑤口口 |--⑤-|
24
口口口口 |----|
③口口③ |①---|
②①①口 |②---|
口口②口 |③---|
25
④口口口 |①---|
口①①口 |--②-|
口口口② |③---|
口口口③ |④---|
26
口口口口 |①---|
口口③④ |②---|
口口③④ |③-④-|
②口①口 |----|
27
①①①① |①---|
②口④⑤ |②---|
③口口④ |③-④-|
口口②⑤ |--⑤-|
28
口口口口 |----|
②③口口 |①---|
口①①口 |②---|
②③口口 |③---|
29
口①口① |①---|
口口①口 |--②-|
②口口口 |③---|
③口④④ |④---|
30
口口口口 |①---|
口口口② |②---|
口①口口
口口口口

③口④口
③口口口
③⑤口④ |③---|
口口口口 |④-⑤-|
31
口口口口 |----|
口②①口 |----|
口口①口 |①---|
②口③口 |②-③-|
32
口口口② |----|
口口口口 |----|
口①口口 |①-②-|
口①口口 |----|
33
口口口⑤ |①---|
⑥①①④ |②-③-|
口口口③ |④-⑤-|
口口⑥② |--⑥-|
34
口口口口 |--①-|
口①③② |--②-|
口口口口 |--③-|
③②口① |----|
35
口口②口 |①---|
口①口② |②-③-|
①③①口
口口口口

口④口口
④口口口
口口⑤口 |----|
口口口口 |④-⑤-|
36
②口口② |----|
口②②口 |①---|
口口口口 |②---|
口①口口 |----|
37
口③①口 |①---|
口口口⑤ |②-③-|
口④②口 |--④-|
口口口口 |⑤---|
38
⑨⑧⑦⑥ |--①-|
①口口口 |----|
口口口口 |②③④⑤|
⑤④③② |⑥⑦⑧⑨|
39
⑤口口口 |----|
①②③④ |①-②-|
①②③④ |③-④-|
口口⑤口 |--⑤-|
40
④②③① |--①-|
口口口口 |--②-|
口口口口 |--③-|
③①④② |--④-|
41
⑤⑤⑥⑥ |----|
④③②① |①-②-|
④③②① |③-④-|
口口口口 |⑤-⑥-|
42
口口口口 |--①-|
口口口① |----|
⑤④③② |②-③-|
口①口① |④-⑤-|
43
①口②① |①---|
②②口口 |②---|
口口③③ |--③-|
口③口口 |----|
44
③①口③ |①---|
口口①① |--②-|
②②口口 |----|
口口②口 |③---|
45
口口口口 |----|
口②④口 |①-②-|
①⑥⑥③ |③-④-|
口⑤⑤口 |⑤-⑥-|
46
①口口① |--①-|
①④④① |--②-|
②口口② |----|
②③口② |③-④-|
47
②②②② |--①-|
口⑤口口 |②---|
⑥口①⑥ |③-④-|
③⑥⑥④ |⑤-⑥-|
48
⑤①①④ |--①-|
①口口① |----|
③口②口 |----|
口口口口 |②③④⑤|
49
⑤⑤④⑤ |①---|
③口②口 |②---|
口②④② |③-④-|
①口②① |--⑤-|
50
④口④口 |----|
③①③① |①-②-|
④口④口 |--③-|
口②口② |--④-|
51
口②口口 |----|
口④③① |①-②-|
④②口③ |--③-|
口口口口 |--④-|
52
口口口口 |----|
②④④② |①---|
口④④口 |②-③-|
①③③① |--④-|
53
①③②① |----|
③口口② |①---|
①口④① |②-③-|
④口口口 |--④-|
54
③口②口 |----|
④①④④ |①-②-|
口②口③ |--③-|
口①口口 |--④-|
55
口①口口 |①-②-|
口②口⑧ |③-④-|
口③口⑦ |⑤-⑥-|
⑥⑤④口 |⑦-⑧-|
56
口口口① |①-②-|
②③④口 |③-④-|
口口口口
口口口口

⑩⑥⑤⑨
口口口口
⑧口⑦口 |⑤-⑥-|
口口口口 |⑦⑧⑨⑩|
57
⑤⑤④⑤ |①---|
③口②口 |②---|
口②④② |③-④-|
①口②① |--⑤-|
58
⑦口口⑥ |----|
③①③① |①-②-|
⑤口④口 |--③-|
口②口② |④⑤⑥⑦|
59
④①④口 |----|
②①口④ |①---|
口①③③ |②-③-|
口①口口 |--④-|
60
口⑤口口 |--①-|
口口⑥口 |②---|
口①口④ |③-④-|
①③②① |⑤-⑥-|
61
口口口⑦ |①-②-|
③口口⑧ |③-④-|
②口口口 |⑤-⑥-|
①⑥⑤④ |⑦-⑧-|
62
②③④口 |①-②-|
口⑥⑤口 |③-④-|
口⑤⑥① |⑤---|
口口口口 |⑥---|
63
口⑦⑦口 |①-②-|
⑥口口③ |③-④-|
⑤口口② |⑤-⑥-|
④口口① |⑦---|
64
⑨口口⑧ |--①-|
④①②③ |②-③-|
⑦口⑥口 |④-⑤-|
口⑤口口 |⑥⑦⑧⑨|
65
⑤⑤④⑤ |①---|
③口②口 |②---|
口②④② |③-④-|
①口②① |--⑤-|
66
④口④口 |----|
③①③① |①-②-|
④口④口 |--③-|
口②口② |--④-|
67
口②口口 |----|
口④③① |①-②-|
④②口③ |--③-|
口口口口 |--④-|
68
口口口口 |--①-|
口⑦⑦口 |②-③-|
口④③口 |④-⑤-|
⑤①②⑥ |⑥-⑦-|
69
①③②① |----|
③口口② |①---|
①口④① |②-③-|
④口口口 |--④-|
70
③口②口 |----|
④①④④ |①-②-|
口②口③ |--③-|
口①口口 |--④-|
71
口①口口 |①-②-|
口②口⑧ |③-④-|
口③口⑦ |⑤-⑥-|
⑥⑤④口 |⑦-⑧-|
72
⑥⑥⑤① |①-②-|
②③④口 |③-④-|
口口口口 |⑤-⑥-|
⑦⑦口口 |--⑦-|
73
④④③④ |----|
②口①口 |①---|
口①③① |②-③-|
口口①口 |--④-|
74
⑦口口⑥ |----|
③①③① |①-②-|
⑤口④口 |--③-|
口②口② |④⑤⑥⑦|
75
④口④口 |----|
②口口④ |①---|
口口③③ |②-③-|
①①①① |--④-|
76
口⑤口口 |--①-|
口口⑥口 |②---|
口①口④ |③-④-|
①③②① |⑤-⑥-|
77
口口口⑦ |①-②-|
③口口⑧ |③-④-|
②口口口 |⑤-⑥-|
①⑥⑤④ |⑦-⑧-|
78
②③④口 |①-②-|
口⑥⑤口 |③-④-|
口⑤⑥① |⑤---|
口口口口 |⑥---|
79
口⑦⑦口 |①-②-|
⑥口口③ |③-④-|
⑤口口② |⑤-⑥-|
④④①① |⑦---|
80
口口口③ |--①-|
口④②口 |②-③-|
口①⑤口 |④-⑤-|
口⑥口口 |⑥---|
81
口口口口 |①-②-|
④⑤②① |----|
④③③① |③---|
口口口口 |④-⑤-|
82
口③口① |----|
③口口口 |①---|
口②②口 |②-③-|
口口口口 |----|
83
口口口口 |①-②-|
④⑤②① |----|
④③③① |③---|
口口口口 |④-⑤-|
84
口③口① |----|
③口口口 |①---|
口②②口 |②-③-|
口口口口 |----|

accuracy: 100%
最終更新:2022年05月05日 18:02