アットウィキロゴ
Aerial Skydive
Dirty Androids

BASIC

Level: 3
BPM : 175
Notes: 319

1
口口口口 |----|
口口口口 |----|
口口口口 |----|
口口口口 |----|
2
口口口口 |①---|
口口口口 |----|
口口口口 |----|
口①①口 |----|
3
口口口口 |①---|
口口口口 |----|
口①①口 |----|
口口口口 |----|
4
口口口口 |①---|
口①①口 |----|
口口口口 |----|
口口口口 |----|
5
口①①口 |①---|
口口口口 |----|
口口口口 |----|
口口口口 |----|
6
口口口口 |①---|
口口口口 |----|
口口口口 |----|
①口口① |----|
7
口口口口 |①---|
口口口口 |----|
①口口① |----|
口口口口 |----|
8
口口口口 |①---|
①口口① |----|
口口口口 |----|
口口口口 |----|
9
①口口① |①---|
口口口口 |----|
口口口口 |----|
口口口口 |----|
10
口口口口 |①---|
口口口口 |②---|
口③④口 |③---|
口①②口 |④---|
11
口③④口 |①---|
口①②口 |②---|
口口口口 |③---|
口口口口 |④---|
12
口口口口 |①---|
口口口口 |②---|
③口口④ |③---|
①口口② |④---|
13
③口口④ |①---|
①口口② |②---|
口口口口 |③---|
口口口口 |④---|
14
口口口口 |①---|
口口口口 |②---|
③④口口 |③---|
①②口口 |④---|
15
③④口口 |①---|
①②口口 |②---|
口口口口 |③---|
口口口口 |④---|
16
口口口口 |①---|
口口口口 |②---|
口口③④ |③---|
口口①② |④---|
17
口口③④ |①---|
口口①② |②---|
口口口口 |③---|
口口口口 |④---|
18
口口口口 |----|
口口口口 |----|
口口口口 |----|
口口口口 |----|
19
④④口口 |①---|
③口口口 |②---|
②口口口 |③---|
①口口口 |④---|
20
口口④④ |①---|
口口口③ |②---|
口口口② |③---|
口口口① |④---|
21
④④口口 |①---|
口③口口 |②---|
口②口口 |③---|
口①口口 |④---|
22
口口④④ |①---|
口口③口 |②---|
口口②口 |③---|
口口①口 |④---|
23
口口口口 |①---|
口口口口 |②---|
口口口④ |③---|
①②③④ |④---|
24
①②③④ |①---|
口口口④ |②---|
口口口口 |③---|
口口口口 |④---|
25
口口口口 |①---|
口口口口 |②---|
④口口口 |③---|
④③②① |④---|
26
④③②① |①---|
④口口口 |②---|
口口口口 |③---|
口口口口 |④---|
27
口口口① |①---|
口②口口 |②---|
口口口③ |③---|
④④口口 |④---|
28
①口口口 |①---|
口口②口 |②---|
③口口口 |③---|
口口④④ |④---|
29
①①①① |①---|
口口口口 |--②-|
②②②② |----|
口口口口 |----|
30
口口口口 |①---|
①①①① |--②-|
口口口口 |----|
②②②② |----|
31
口口④④ |①---|
①口口口 |②---|
口②口口 |③---|
口口③口 |④---|
32
④④口口 |①---|
口口口① |②---|
口口②口 |③---|
口③口口 |④---|
33
口口③口 |①---|
口②口口 |②---|
①口口口 |③---|
口口④④ |④---|
34
口③口口 |①---|
口口②口 |②---|
口口口① |③---|
④④口口 |④---|
35
口口口口 |①---|
口②②口 |----|
口①①口 |②---|
口口口口 |----|
36
口口口① |①---|
②口口口 |②---|
口口口③ |③---|
④口口口 |④---|
37
口口口口 |①---|
口②②口 |----|
口①①口 |②---|
口口口口 |----|
38
①口口口 |①---|
口口口② |②---|
③口口口 |③---|
口口口④ |④---|
39
口口口口 |①---|
口②②口 |----|
口①①口 |②---|
口口口口 |----|
40
口口①口 |①---|
口口口② |②---|
口口口③ |③---|
口口④口 |④---|
41
口口口口 |①---|
口②②口 |----|
口①①口 |②---|
口口口口 |----|
42
口①口口 |①---|
②口口口 |②---|
③口口口 |③---|
口④口口 |④---|
43
②口①口 |①---|
口④口③ |②---|
口口口口 |③---|
口口口口 |④---|
44
口口口口 |①---|
口口口口 |②---|
②口①口 |③---|
口口③③ |----|
45
口①①口 |①---|
口②②口 |②---|
口③③口 |③---|
口④④口 |④---|
46
①口口① |①---|
②口口② |②---|
③口口③ |③---|
④口口④ |④---|
47
口①口② |①---|
③口④口 |②---|
口口口口 |③---|
口口口口 |④---|
48
口口口口 |①---|
口口口口 |②---|
口①口② |③---|
③③口口 |----|
49
口①①口 |①---|
口②②口 |②---|
口③③口 |③---|
口④④口 |④---|
50
①口口① |①---|
②口口② |②---|
③口口③ |③---|
④口口④ |④---|
51
②口口口 |①---|
口口口口 |----|
口①①口 |②---|
口口口口 |----|
52
口口口① |①---|
口②口口 |----|
口口口口 |②---|
口口口口 |----|
53
口口口口 |①---|
口口口② |----|
口口口口 |②---|
口①①口 |----|
54
口口②口 |①---|
①口口口 |----|
口口口口 |②---|
口口口口 |----|
55
②口口口 |①---|
口口口口 |----|
口①①口 |②---|
口口口口 |----|
56
口口口① |①---|
口②口口 |----|
口口口口 |②---|
口口口口 |----|
57
口口口口 |①---|
口口口② |----|
口口口口 |②---|
口①①口 |----|
58
口口口口 |①---|
①口口口 |----|
口口②口 |②---|
口口口口 |----|
59
口口口口 |①---|
口①①口 |----|
口口口口 |----|
口口口口 |----|
60
口口口口 |----|
口口口口 |----|
口口口口 |----|
口口口口 |----|
61
口口口口 |----|
口口口口 |----|
口口口口 |----|
口口口口 |----|
62
口口口口 |----|
口口口口 |----|
口口口口 |----|
口口口口 |----|
63
口口口口 |①---|
口口口口 |----|
①口口① |----|
口口口口 |----|
64
口口口口 |①---|
①口口① |----|
口口口口 |----|
口口口口 |----|
65
②②②② |①---|
口口口口 |--②-|
③③③③ |----|
①①①① |③---|
66
④②②④ |①---|
口口口口 |②---|
口口口口 |③---|
①③③① |④---|
67
口口④④ |①---|
口②口口 |②---|
口口口口 |③---|
①口③口 |④---|
68
④④口口 |①---|
口口②口 |②---|
口口口口 |③---|
口③口① |④---|
69
口口④④ |①---|
口口口口 |②---|
口②口口 |③---|
①口③口 |④---|
70
④④口口 |①---|
口口口口 |②---|
口口②口 |③---|
口③口① |④---|
71
口口④④ |①---|
口口口口 |②---|
口③口口 |③---|
①口②口 |④---|
72
④④口口 |①---|
口口口口 |②---|
口口③口 |③---|
口②口① |④---|
73
口口④④ |①---|
口③口口 |②---|
口口口口 |③---|
①口②口 |④---|
74
④④口口 |①---|
口口③口 |②---|
口口口口 |③---|
口②口① |④---|
75
口口口口 |①---|
口口口① |----|
口口②口 |②---|
口口口口 |----|
76
口口口口 |①---|
口口口口 |----|
口口口口 |----|
口①口口 |----|
77
①口口① |①---|
口口口口 |--②-|
口口口口 |----|
②口口② |----|
78
口口口口 |①---|
口①①口 |--②-|
口②②口 |----|
口口口口 |----|
79
口口口口 |①---|
口②口口 |----|
①口口口 |②---|
口口口口 |----|
80
口口①口 |①---|
口口口口 |----|
口口口口 |----|
口口口口 |----|
81
口口口口 |①---|
口②口口 |----|
口口口口 |②---|
口口口① |----|
82
口口口口 |①---|
口③②口 |----|
口口口口 |②---|
①口口口 |③---|

accuracy: 100%
最終更新:2022年03月26日 03:28