アットウィキロゴ
Aerial Skydive
Dirty Androids

ADVANCED

Level: 7
BPM : 175
Notes: 455

1
口口口口 |----|
口口口口 |----|
口口口口 |----|
口口口口 |----|
2
口口口口 |①---|
口口口口 |----|
②②口口 |②---|
①①口口 |----|
3
②②口口 |①---|
①①口口 |----|
口口口口 |②---|
口口口口 |----|
4
口口口口 |①---|
口口口口 |----|
口口②② |②---|
口口①① |----|
5
口口②② |①---|
口口①① |----|
口口口口 |②---|
口口口口 |----|
6
口口口口 |①---|
口口口口 |----|
②口②口 |②---|
①口①口 |----|
7
②口②口 |①---|
①口①口 |----|
口口口口 |②---|
口口口口 |----|
8
口口口口 |①---|
口口口口 |----|
口②口② |②---|
口①口① |----|
9
口②口② |①---|
口①口① |----|
口口口口 |②---|
口口口口 |----|
10
口口口口 |①---|
口口口口 |②---|
③口④口 |③---|
①口②口 |④---|
11
③口④口 |①---|
①口②口 |②---|
口口口口 |③---|
口口口口 |④---|
12
口口口口 |①---|
口口口口 |②---|
口④口③ |③---|
口②口① |④---|
13
口④口③ |①---|
口②口① |②---|
口口口口 |③---|
口口口口 |④---|
14
口④口口 |①---|
③口口口 |②---|
口②口口 |③---|
①口口口 |④---|
15
口口④口 |①---|
口③口口 |②---|
口口②口 |③---|
口①口口 |④---|
16
口口口④ |①---|
口口③口 |②---|
口口口② |③---|
口口①口 |④---|
17
⑤③③⑤ |①--②|
口口口口 |--③-|
口②②口 |--④-|
④①①④ |⑤---|
18
口⑦⑦口 |①-②-|
口①②口 |③-④-|
③口口④ |⑤-⑥-|
口⑤⑥口 |⑦---|
19
口口口口 |①---|
口③⑤口 |②-③-|
口④②口 |--④-|
①口口口 |⑤---|
20
口口口口 |①---|
③口口① |②-③-|
口口口口 |----|
②④④口 |④---|
21
口①口口 |①---|
⑤口③口 |②-③-|
口②口④ |--④-|
口口⑥口 |⑤-⑥-|
22
⑤⑤口① |①---|
口②④④ |②-③-|
口口③口 |--④-|
口口口口 |--⑤-|
23
口口②口 |①---|
口口口口 |②---|
口口③口 |③-④-|
①④口⑤ |⑤---|
24
口口口口 |①---|
③口口① |②-③-|
口④④口 |----|
②口口口 |④---|
25
口③口口 |①-②-|
⑥口②⑤ |③-④-|
④口口① |⑤-⑥-|
⑧口口⑦ |⑦-⑧-|
26
口④⑥⑥ |①-②-|
口口③口 |③-④-|
口②口口 |--⑤-|
口⑤①口 |⑥---|
27
口口口口 |①---|
口③⑤口 |②-③-|
口④②口 |--④-|
①口口口 |⑤---|
28
口口口口 |①---|
③口口① |②-③-|
口④④口 |----|
②口口口 |④---|
29
①口口① |①---|
口口口口 |--②-|
口口口口 |----|
②口口② |----|
30
口①①口 |①---|
口口口口 |--②-|
口口口口
口②②口

④④口口
口口口口
口口口口 |--③-|
口口口③ |--④-|
31
口口口口 |①---|
口⑤②口 |②---|
口口④口 |③-④-|
①③口口 |⑤---|
32
口口口口 |①---|
③口口① |②-③-|
口④④口 |----|
②口口口 |④---|
33
口③口口 |①-②-|
⑥口②⑤ |③-④-|
④口口① |⑤-⑥-|
⑧口口⑦ |⑦-⑧-|
34
口④口⑤ |①-②-|
⑥口③口 |③-④-|
口②口⑦ |⑤-⑥-|
口口①口 |⑦---|
35
口③④口 |①---|
口⑤⑥口 |②---|
①口①口 |③-④-|
口②口口 |⑤-⑥-|
36
口口口口 |①---|
口口口口 |②---|
①口③口 |③---|
口②口④ |④---|
37
口④③口 |①---|
口⑥⑤口 |②---|
口①口① |③-④-|
口口②口 |⑤-⑥-|
38
口口口口 |①---|
口口口口 |②---|
口③口① |③---|
④口②口 |④---|
39
口③④口 |①---|
口⑤⑥口 |②---|
①口①口 |③-④-|
口②口口 |⑤-⑥-|
40
口口口口 |①---|
口口口口 |②---|
①口③口 |③---|
口②口④ |④---|
41
口④③口 |①---|
口⑥⑤口 |②---|
口①口① |③-④-|
口口②口 |⑤-⑥-|
42
口口口口 |①---|
口口口口 |②---|
口③口① |③---|
④口②口 |④---|
43
③②①口 |①-②-|
口口④⑤ |③---|
口⑥口口 |④-⑤-|
口口口口 |--⑥-|
44
口口⑤口 |①---|
④口口口 |②-③-|
①口口⑥ |--④-|
口口②③ |⑤-⑥-|
45
口①口② |①-②-|
口③口④ |③-④-|
口口口口
口口口口

⑧⑧口口
口口口口
⑤口⑥口 |⑤-⑥-|
⑦口口口 |⑦-⑧-|
46
口口①① |--①-|
口口口口 |--②-|
③口口③ |----|
口②②口 |③---|
47
口①②③ |①-②-|
⑤④口口 |③---|
口口⑥口 |④-⑤-|
口口口口 |--⑥-|
48
口⑤口口 |①---|
口口口④ |②-③-|
⑥口口① |--④-|
③②口口 |⑤-⑥-|
49
②口①口 |①-②-|
④口③口 |③-④-|
口⑥口⑤ |⑤-⑥-|
口⑧口⑦ |⑦-⑧-|
50
口①①口 |①--②|
口②③口 |--③-|
②口口③ |----|
口④④口 |④---|
51
①①⑤③ |①---|
口口口口 |----|
口口口口 |②-③-|
口口④② |④-⑤-|
52
口⑥口④ |①-②-|
②口口口 |--③-|
①口口口 |④-⑤-|
口⑤⑦③ |⑥-⑦-|
53
口口①口 |①---|
口口口口 |----|
⑤④③② |②-③-|
口口口口 |④-⑤-|
54
②口口① |①-②-|
口⑥⑤口 |③-④-|
口口⑦口 |⑤-⑥-|
④口口③ |⑦---|
55
①①⑤③ |①---|
口口口口 |----|
口口口口 |②-③-|
口口④② |④-⑤-|
56
④②口口 |①-②-|
口⑧⑤口 |③-④-|
口⑥⑦口 |⑤-⑥-|
③①口口 |⑦-⑧-|
57
④口③① |①-②-|
②口口口 |③-④-|
⑧口口⑤ |⑤-⑥-|
口⑦⑥口 |⑦-⑧-|
58
口②③口 |①-②-|
①口口④ |③-④-|
口口口⑤ |⑤-⑥-|
口⑦⑥口 |⑦---|
59
口口口口 |①---|
口①①口 |----|
口①①口 |----|
口口口口 |----|
60
口口口口 |----|
口口口口 |----|
口口口口 |----|
口口口口 |----|
61
口口口口 |----|
口口口口 |----|
口口口口 |----|
口口口口 |----|
62
口口口口 |----|
口口口口 |----|
口口口口 |----|
口口口口 |----|
63
口口口口 |①---|
口口口口 |----|
口口口② |②---|
①口口口 |----|
64
口口口② |①---|
①口口口 |----|
口口口口 |②---|
口口口口 |----|
65
口①①口 |①---|
①③③① |--②-|
②③③② |----|
口②②口 |③---|
66
④口口④ |①---|
③口口③ |②---|
②口口② |③---|
①口口① |④---|
67
口口口口 |①---|
口③⑤口 |②-③-|
口④②口 |--④-|
①口口口 |⑤---|
68
口口口口 |①---|
③口口① |②-③-|
口口口口 |----|
②④④口 |④---|
69
口①口口 |①---|
⑤口③口 |②-③-|
口②口④ |--④-|
口口⑥口 |⑤-⑥-|
70
⑤⑤口① |①---|
口②④④ |②-③-|
口口③口 |--④-|
口口口口 |--⑤-|
71
口口②口 |①---|
口口口口 |②---|
口口③口 |③-④-|
①④口⑤ |⑤---|
72
口口口口 |①---|
③口口① |②-③-|
口④④口 |----|
②口口口 |④---|
73
口③口口 |①-②-|
⑥口②⑤ |③-④-|
④口口① |⑤-⑥-|
⑧口口⑦ |⑦-⑧-|
74
口④⑥⑥ |①-②-|
口口③口 |③-④-|
口②口口 |--⑤-|
口⑤①口 |⑥---|
75
①口⑤口 |①-②-|
口口口② |③-④-|
③口口口 |--⑤-|
口⑥口④ |--⑥-|
76
口口口③ |----|
口②口口 |--①-|
④口①口 |--②-|
口口口口 |③-④-|
77
①①口口 |①-②-|
口⑥④④ |③-④-|
口③⑦⑤ |--⑤-|
口口口② |⑥-⑦-|
78
①①④④ |①-②-|
⑥口口口 |③-④-|
口③⑦口 |--⑤-|
口⑤口② |⑥-⑦-|
79
①口口口 |①-②-|
口口⑤② |③-④-|
③⑥口口 |--⑤-|
口口口④ |--⑥-|
80
①口③口 |----|
口口口口 |--①-|
口④口口 |--②-|
口口口② |③-④-|
81
⑧口⑦④ |①-②-|
⑥③口① |③-④-|
口口⑤口 |⑤-⑥-|
口口②口 |⑦-⑧-|
82
口口口④ |①-②-|
⑤口③⑥ |③-④-|
⑤②口⑥ |--⑤-|
口口口① |⑥---|

accuracy: 100%
最終更新:2022年03月26日 03:28