アットウィキロゴ
Aerial Skydive
Dirty Androids

EXTREME

Level: 9.0
BPM : 175
Notes: 693

1
口口口口 |----|
口口口口 |----|
口口口口 |----|
口口口口 |----|
2
口③口口 |①---|
②口④口 |②---|
①口口口 |③---|
口口口口 |④---|
3
口口口口 |①---|
口口口口 |----|
口口①口 |----|
口口口口 |----|
4
口口口口 |①---|
口口③口 |②---|
口④口② |③---|
口口口① |④---|
5
口口口口 |①---|
口口口口 |----|
口口口口 |----|
口①口口 |----|
6
口口口口 |①---|
口③口口 |②---|
②口④口 |③---|
①口口口 |④---|
7
口口口口 |①---|
口口口口 |----|
口口口口 |----|
口口①口 |----|
8
口口③口 |①---|
口④口② |②---|
口口口① |③---|
口口口口 |④---|
9
口口口口 |①---|
口口口口 |----|
口①口口 |----|
口口口口 |----|
10
①①口口 |①---|
⑤口②口 |②-③-|
口口口口 |--④-|
口④③口 |⑤---|
11
口口口口 |①---|
口口口② |②-③-|
口口①① |----|
③④④口 |④---|
12
口口①① |①---|
口口⑤口 |②-③-|
口③口④ |--④-|
②口口口 |⑤---|
13
口口口① |①---|
①③口口 |②-③-|
口②口口
③口口口

口口④⑤
口口口④
口口口⑤ |--④-|
口口口口 |--⑤-|
14
口口⑤口 |①---|
④口口口 |②---|
口②口口 |③-④-|
口③①口 |⑤---|
15
口口口口 |①---|
口①③口 |②-③-|
口口口口 |----|
②口④口 |④---|
16
①口口口 |①---|
口④口② |②-③-|
口口⑤口 |--④-|
③口口口 |⑤---|
17
②⑤⑤① |①--②|
口口口口 |--③-|
②④④① |--④-|
③⑥⑥③ |⑤-⑥-|
18
①口⑨⑤ |①②③-|
⑥③口② |④-⑤⑥|
⑩口⑪⑦ |⑦⑧⑨⑩|
⑧⑪口④ |⑪---|
19
①①⑦⑤ |①-②③|
口⑧②口 |④-⑤-|
⑥③口口 |⑥-⑦-|
口口④口 |⑧---|
20
口口口口 |①---|
口口②口 |②-③-|
口④①① |----|
口③④口 |④---|
21
⑤口①① |①-②③|
②口口⑥ |④-⑤-|
口口⑧③ |--⑥-|
④口口⑦ |⑦-⑧-|
22
口口口① |①---|
①③口口 |②-③-|
口②口口
③口口口

口口④⑤
口口口④
口口口⑤ |--④-|
口口口口 |--⑤-|
23
口②口口 |①-②③|
口口③口 |④-⑤-|
口④⑤口
口口①①

口口⑧口
⑦口口口
口口口口 |⑥-⑦-|
口⑥口⑨ |⑧-⑨-|
24
口④④口 |①---|
口①③口 |②-③-|
口口口口 |----|
②口口口 |④---|
25
口⑦口口 |①-②③|
口①⑤② |④-⑤-|
③口⑧口 |⑥-⑦-|
⑥⑨口④ |⑧-⑨-|
26
口口⑤① |①---|
③④口⑤ |②-③-|
口②口① |--④-|
③⑥口口 |⑤-⑥-|
27
①①⑦⑤ |①-②③|
口⑧②口 |④-⑤-|
⑥③口口 |⑥-⑦-|
口口④口 |⑧---|
28
口口口口 |①---|
口④②口 |②-③-|
口口①① |--④-|
口③⑤口 |⑤---|
29
②①①口 |①---|
①⑥④① |②-③-|
③⑤③口 |--④-|
口③口③ |⑤-⑥-|
30
口①③口 |①---|
①口口③ |②-③-|
③口②①
口③①口

④口口⑤
口口口口
口口口⑤ |--④-|
口口口口 |--⑤-|
31
口②口口 |①-②③|
口口③口 |④-⑤-|
口④⑤口
口口①①

口口⑧口
⑦口口口
口口口口 |⑥-⑦-|
口⑥口⑨ |⑧-⑨-|
32
口口口口 |①---|
口①③口 |②-③-|
口④④口 |----|
②口口口 |④---|
33
口⑦口口 |①-②③|
口①⑤② |④-⑤-|
③口⑧口 |⑥-⑦-|
⑥⑨口④ |⑧-⑨-|
34
②口口① |①-②-|
口⑥⑤口 |③-④-|
口⑧⑦口 |⑤⑥⑦⑧|
④口⑨③ |⑨---|
35
②口①⑤ |①---|
②口③⑤ |②---|
②⑥口⑤ |③-④-|
口④口口 |⑤-⑥-|
36
③口①⑥ |①-②-|
③⑦口⑥ |③-④-|
③口口⑥ |--⑤-|
口⑤②④ |⑥-⑦-|
37
②口①⑤ |①---|
②口③⑤ |②---|
②⑥口⑤ |③-④-|
④口口口 |⑤-⑥-|
38
③口②⑤ |①-②-|
③口④⑤ |③-④-|
③口口⑤ |----|
口口①口 |⑤---|
39
②口①⑤ |①---|
②口③⑤ |②---|
②⑥口⑤ |③-④-|
口④口口 |⑤-⑥-|
40
③口①⑥ |①-②-|
③⑦口⑥ |③-④-|
③口口⑥ |--⑤-|
口⑤②④ |⑥-⑦-|
41
②口①⑤ |①---|
②口③⑤ |②---|
②⑥口⑤ |③-④-|
④口口口 |⑤-⑥-|
42
③口②⑤ |①-②-|
③口④⑤ |③-④-|
③口口⑤ |----|
口口①口 |⑤---|
43
⑨⑩⑪口 |①②③-|
④口口⑧ |④-⑤⑥|
⑦⑥⑤口 |⑦-⑧-|
①②③口 |⑨⑩⑪-|
44
口口口口 |①-②③|
④③②口 |④-⑤-|
口口口口
①口⑤口

口⑧口口
口口口口
口⑥口⑦ |⑥-⑦-|
⑨口口口 |⑧-⑨-|
45
②⑧⑤① |①-②-|
⑥④③⑦ |③-④-|
①⑤②⑥ |⑤-⑥-|
⑦③⑧④ |⑦-⑧-|
46
①口口① |--①-|
口口口口 |--②-|
口②②口 |----|
③口口③ |③---|
47
④口口口 |①②③-|
①②③口 |④-⑤⑥|
口⑦⑥⑤ |⑦-⑧-|
⑨⑩⑪⑧ |⑨⑩⑪-|
48
口④③② |①-②③|
口①口⑤ |④-⑤-|
⑥口口⑧ |⑥-⑦-|
⑨口口⑦ |⑧-⑨-|
49
①口③① |①-②-|
口②口④ |③-④-|
④口②口
口③口口

⑧⑥口口
⑦口⑤口
口⑤口⑦ |⑤-⑥-|
口口⑥⑧ |⑦-⑧-|
50
④④②① |①--②|
口③③② |--③-|
②③③口 |----|
①②口口 |④---|
51
口口⑤⑧ |①---|
口口⑥⑨ |②-③-|
③口口② |④-⑤-⑥-|
⑦④①① |⑦-⑧-⑨-|
52
②②口口 |①-②-|
口⑥⑥口 |--③-|
④①④⑦ |④-⑤-|
口口⑤③ |⑥-⑦-|
53
①⑪⑫③ |①---|
口⑨⑩④ |②-③-④-|
口⑦⑧口 |⑤⑥⑦⑧|
②⑤⑥口 |⑨⑩⑪⑫|
54
①口口③ |①-②-|
⑤口口⑤ |③-④-|
②⑥⑥④ |⑤---|
⑥口口⑥ |⑥---|
55
②口①④ |①---②-|
口口⑤口 |③-④-⑤-|
口口口口
口③口口

口口⑩口
口口口⑪
⑥口口⑦ |⑥-⑦-⑧-|
⑨口⑧口 |⑨-⑩-⑪-|
56
⑤⑤口口 |①-②-③-|
口口口口 |④-⑤-|
口①②口
口④口③

口口口⑥
口口口口
口⑦口⑥ |--⑥-|
⑦口口口 |--⑦-|
57
口口口⑦ |①-②-|
⑩④⑥② |③-④-|
口⑨口⑤ |⑤-⑥-⑦-|
⑧口③① |⑧-⑨-⑩-|
58
⑥口口⑨ |①-②-③-|
口⑤⑧③ |④-⑤-⑥-|
④口②⑦ |⑦-⑧-⑨-|
口⑩⑩① |⑩---|
59
口②口口 |①---|
①口口① |----|
口①①口 |②---|
①口口① |----|
60
口口口口 |①---|
口口①口 |----|
口②口口 |②---|
口口口口 |----|
61
口口口口 |①---|
口口口口 |----|
口口口口 |②---|
口②①口 |----|
62
口口口口 |①---|
口②口口 |----|
口口①口 |②---|
口口口口 |----|
63
④口口③ |①---|
口口口口 |②---|
口口口口 |③---|
②口口① |④---|
64
口口口口 |①---|
口④③口 |②---|
口②①口 |③---|
口口口口 |④---|
65
②③①① |①---|
③口口② |--②-|
②口口③ |----|
①①③② |③---|
66
口口口口 |①-②-|
口口①③ |③-④-|
④口口口
口②口口

口口⑨⑤
⑥⑩口口
口口⑪⑦ |⑤⑥⑦⑧|
⑧⑫口口 |⑨⑩⑪⑫|
67
①①口⑤ |①-②③|
口口②口 |④-⑤-|
口③口口
口口④④

口⑨口口
⑦⑦口⑧
⑥口口口 |⑥-⑦-|
口口口口 |⑧-⑨-|
68
口口口口 |①-②-|
口口③口 |③-④-|
口口①①
④④口②

口口口口
口⑥口口
⑤口⑧口 |⑤-⑥-|
口口⑦口 |⑦-⑧-|
69
⑤⑤①① |①-②③|
②口口口 |④-⑤-|
⑦⑦⑨③ |⑥-⑦-|
④⑥⑧⑧ |⑧-⑨-|
70
口③口① |①-②-|
①④②口 |③-④-|
口口口口
④口口口

⑦口⑥⑧
口口口⑥
⑤口口⑧ |⑤-⑥-|
口口口口 |⑦-⑧-|
71
口⑤口口 |①-②③|
②口口口 |④-⑤-|
口⑤③口
④口①①

⑧口⑦口
口口口⑦
⑥口口口 |⑥-⑦-|
口⑥口⑨ |⑧-⑨-|
72
口口⑦④ |①-②-|
⑧①④口 |③-④-|
口⑥①② |⑤-⑥-|
③口⑤口 |⑦-⑧-|
73
①⑦⑦口 |①-②③|
口①⑤② |④-⑤-|
③口⑧口 |⑥-⑦-|
⑥⑨⑤④ |⑧-⑨-|
74
②口⑦① |①-②-|
④⑥口⑦ |③-④-|
口③口① |⑤-⑥-|
④⑧⑤口 |⑦-⑧-|
75
⑤①口口 |①-②-|
③口②口 |③-④-|
①③④② |--⑤-|
⑦口⑥④ |⑥-⑦-|
76
④口口口 |----|
口口③口 |--①-|
口口口口 |--②-|
口①口② |③-④-|
77
口④口① |①-②-|
④口口① |③-④-|
①②③④
①口④口

口口⑥口
口口口口
⑦口口口 |--⑤-|
口⑤口口 |⑥-⑦-|
78
④口口④ |①-②-|
③①①② |③-④-|
口④④口
①口口①

口⑥口口
口口口口
⑥口口口 |--⑤-|
⑦口⑤口 |⑥-⑦-|
79
口口①⑤ |①-②-|
②②①口 |③-④-|
口④口③ |--⑤-|
口④⑥③ |--⑥-|
80
口口口④ |----|
口③口口 |--①-|
口口口② |--②-|
①口口口 |③-④-|
81
口①④⑧ |①-②-|
①口⑥④ |③-④-|
⑦③口⑧ |⑤-⑥-|
⑦⑤②口 |⑦-⑧-|
82
①③④⑥ |①-②-|
⑤①口④ |③-④-|
口口②⑥ |--⑤-|
⑤口口口 |⑥---|

accuracy: 100%
最終更新:2022年03月26日 03:29