アットウィキロゴ
パピポペピプペパ
P*Light

ADVANCED

Level: 9.0
BPM: 187
Notes(hold): 817(13)

1
□□□□ |----|
□□□□ |----|
□□□□ |----|
□□□□ |----|
2
□□□② |①---|
□□□□ |②---|
①□□① |③---|
□□□□ |④-⑤-|

□□③□
□□□□
□⑤□⑤
④□□□
3
□②□② |--①-|
□①□① |--②-|
□④③□ |③---|
□④③□ |④---|
4
②□□□ |①---|
□□□□ |②---|
①□□① |③---|
□□□□ |④-⑤-|

□③□□
□□□□
⑤□⑤□
□□□④
5
②□②□ |--①-|
①□①□ |--②-|
□③④□ |③---|
□③④□ |④---|
6
□□□② |①---|
□□□□ |②---|
①□□① |③---|
□□□□ |④-⑤-|

□□③□
□□□□
□⑤□⑤
④□□□
7
□②□② |--①-|
□①□① |--②-|
□④③□ |③---|
□④③□ |④---|
8
⑥⑤④③ |①-②-|
⑦□□② |③-④-|
⑧□□① |⑤-⑥-|
□□□□ |⑦-⑧-|
9
□□④④ |①---|
□□③④ |②---|
□②③□ |③---|
①②③□ |④---|
10
①①□⑤ |①---|
①①⑤④ |②---|
①□④③ |③-④-|
②②③□ |⑤---|
11
⑦□②□ |①-②③|
⑩③□□ |④-⑤⑥|
①⑤□⑧ |⑦-⑧-|
□⑨⑥④ |⑨-⑩-|
12
□⑤①① |①---|
⑤④①① |②---|
④③①□ |③-④-|
③□②② |⑤---|
13
□□①□ |①-②③|
□□□① |④-⑤-|
□□□□ |⑥-⑦-|
⑤②③④ |----|

□□>⑥
□□□□
□□>⑥
□□□□

□□□⑦
□□□□
□□□⑦
□□□□
14
①①□⑤ |①---|
①①⑤④ |②---|
①□④③ |③-④-|
②②③□ |⑤---|
15
⑦⑩②□ |①-②③|
□③□□ |④-⑤⑥|
①⑤□⑧ |⑦-⑧-|
⑨□⑥④ |⑨-⑩-|
16
⑤□①① |①---|
④⑤①① |②---|
③④①□ |③-④-|
□③②② |⑤---|
17
□②③④ |①-②③|
⑥<□① |④-⑤-|
□□①□ |⑥-⑦-|
⑥<⑤□ |----|

□□□□
⑦□□□
□□□□
⑦□□□
18
⑦⑦④② |①-②-|
⑥□□□ |③-④-|
⑥□□□ |⑤--⑥|
⑤⑤③① |--⑦-|
19
□□□⑨ |①-②③|
⑩⑧⑦⑥ |④-⑤-|
□②③④ |⑥⑦⑧-|
□⑤□① |⑨-⑩-|
20
②④⑦⑦ |①-②-|
□□□⑥ |③-④-|
□□□⑥ |⑤--⑥|
①③⑤⑤ |--⑦-|
21
⑥⑦⑧□ |①-②③|
⑥⑦⑧□ |④-⑤-|
④③②□ |⑥-⑦-|
①□⑤□ |⑧---|
22
⑦⑥⑥⑤ |①-②-|
⑦□□⑤ |③-④-|
③□□④ |⑤--⑥|
①□□② |--⑦-|
23
□□⑨□ |①-②③|
□⑧②⑤ |④-⑤-|
□⑦③⑩ |⑥⑦⑧-|
□⑥④① |⑨-⑩-|
24
⑤①□① |①-②-|
②⑤②□ |③-④-|
③⑦③⑥ |⑤--⑥|
□④⑥④ |--⑦-|
25
□□□□ |①---|
□□>① |----|
□□□□ |②---|
□□□□ |③---|

□□□□
□□□②
□□③□
□□□③
26
①①□⑤ |①---|
①①⑤④ |②---|
①□④③ |③-④-|
②②③□ |⑤---|
27
⑦□②□ |①-②③|
⑩③□□ |④-⑤⑥|
①⑤□⑧ |⑦-⑧-|
□⑨⑥④ |⑨-⑩-|
28
□⑤①① |①---|
⑤④①① |②---|
④③①□ |③-④-|
③□②② |⑤---|
29
□□①□ |①-②③|
□□□① |④-⑤-|
□□□□ |⑥-⑦-|
⑤②③④ |----|

□□>⑥
□□□□
□□>⑥
□□□□

□□□⑦
□□□□
□□□⑦
□□□□
30
①①□⑤ |①---|
①①⑤④ |②---|
①□④③ |③-④-|
②②③□ |⑤---|
31
⑦□②□ |①-②③|
⑩③□□ |④-⑤⑥|
①⑤□⑧ |⑦-⑧-|
□⑨⑥④ |⑨-⑩-|
32
□⑤①① |①---|
⑤④①① |②---|
④③①□ |③-④-|
③□②② |⑤---|
33
②□□① |①---|
□③③□ |②---|
□③③□ |③---|
□③□□ |----|
34
②②□□ |①---|
□□③③ |②---|
④⑤⑥⑦ |③---|
□□①① |④⑤⑥⑦|
35
□③②② |①---|
□③□□ |②---|
⑦⑥⑤④ |③---|
①①□□ |④⑤⑥⑦|
36
□□□□ |①---|
□④①① |②---|
□④□□ |③---|
②②③③ |④---|
37
①②③④ |①②③④|
□□□□ |--⑤⑥|
□⑨⑨□ |⑦⑧--|
⑤⑥⑦⑧ |⑨---|
38
②④>⑤ |①-②-|
□□①□ |③-④⑤|
③□>⑤ |----|
□□□□ |--⑥-|

□□□⑥
□□□□
□□□⑥
□□□□
39
□□□□ |①-②-|
□□□② |③-④⑤|
□①④□ |----|
③□□③ |--⑥-|

⑤<□□
□□□□
⑤<□□
□□□□

⑥□□□
□□□□
⑥□□□
□□□□
40
□□□□ |①-②-|
①②③④ |③-④-|
⑫⑪⑩⑨ |⑤⑥⑦⑧|
⑧⑦⑥⑤ |⑨⑩⑪⑫|
41
□①①□ |①---|
□□□□ |----|
□□□□ |----|
□□□□ |----|
42
□□□□ |①---|
④④□□ |②---|
□□□③ |③---|
②②□① |④---|
43
□□□□ |①-②-|
⑤⑤②① |③---|
④④□□ |④---|
③③□□ |⑤---|
44
□□□□ |①---|
④④□□ |②---|
③③□□ |③---|
②②□① |④---|
45
⑥⑥⑥⑥ |①-②-|
□□②① |③---|
□⑤④□ |④-⑤-|
③③□□ |⑥---|
46
□□□□ |①---|
④④□□ |②---|
□□□③ |③---|
②②□① |④---|
47
□□□□ |①-②-|
⑤⑤②① |③---|
④④□□ |④---|
③③□□ |⑤---|
48
⑤⑤④④ |①---|
⑥□□③ |②---|
⑥□□③ |③-④-|
□②②① |⑤-⑥-|
49
□□④④ |①---|
□□③④ |②---|
□②③□ |③---|
①②③□ |④---|
50
①①□⑤ |①---|
①①⑤④ |②---|
①□④③ |③-④-|
②②③□ |⑤---|
51
①②□□ |①-②-|
□⑤□□ |③---|
□③□④ |④---|
④⑤□③ |⑤---|
52
□⑤①① |①---|
⑤④①① |②---|
④③①□ |③-④-|
③□②② |⑤---|
53
⑤□①② |①-②-|
⑥□□⑥ |③---|
⑥□□⑥ |④-⑤-|
□□④③ |⑥---|
54
□①①□ |①---|
⑤①①⑤ |②---|
④①□④ |③-④-|
②③③② |⑤---|
55
①②②① |①-②-|
□③④□ |③---|
□④③□ |④---|
④⑤⑤③ |⑤---|
56
②□□① |①-②-|
⑩□□⑨ |③-④-|
⑫⑥⑤⑪ |⑤⑥⑦⑧|
④⑧⑦③ |⑨⑩⑪⑫|
57
②□□① |①---|
□③③□ |②---|
□③③□ |③---|
□③□□ |----|
58
②⑤□□ |①---|
⑤□④□ |②---|
□④□③ |③--④|
□□③① |--⑤-|
59
□□□□ |①---|
□①②□ |----|
□②①□ |②---|
□□□□ |----|
60
□□⑤② |①---|
□④□⑤ |②---|
③□④□ |③--④|
①③□□ |--⑤-|
61
□□□□ |①---|
□②①□ |----|
□①②□ |②---|
□□□□ |----|
62
②⑤□□ |①---|
⑤□④□ |②---|
□④□③ |③--④|
□□③① |--⑤-|
63
④□□② |①---|
④①③② |②---|
□③①□ |③---|
□□□□ |④---|
64
□□⑤② |①---|
□④□⑤ |②---|
③□④□ |③--④|
①③□□ |--⑤-|
65
①□□□ |①---|
①□□□ |----|
□□□□ |----|
□□□□ |----|
66
□□□∨ |①---|
②□□□ |----|
□□□□ |②---|
①□□① |----|
67
□□□□ |①---|
□②□□ |----|
□□□□ |②---|
□①□③ |③---|
68
⑤□□□ |①---|
③□□□ |②---|
②□④□ |③-④-|
①□□□ |⑤---|
69
□④□④ |①---|
□③④□ |②---|
□②□□ |③---|
□①□□ |④---|
70
⑤□□⑤ |①---|
③□⑤□ |②---|
②□④□ |③-④-|
①□①□ |⑤---|
71
□⑤□⑤ |①---|
□③⑤□ |②---|
□②④□ |③-④-|
□①□□ |⑤---|
72
②□①□ |①---|
⑧□□⑦ |②---|
⑩④③⑨ |③④⑤⑥|
①⑥⑤② |⑦⑧⑨⑩|
73
②□□① |①---|
□③③□ |②---|
□③③□ |③---|
□③□□ |----|
74
②②□□ |①---|
□□③③ |②---|
④⑤⑥⑦ |③---|
□□①① |④⑤⑥⑦|
75
□③②② |①---|
□③□□ |②---|
⑦⑥⑤④ |③---|
①①□□ |④⑤⑥⑦|
76
□□□□ |①---|
□④①① |②---|
□④□□ |③---|
②②③③ |④---|
77
①②③④ |①②③④|
□□□□ |--⑤⑥|
□⑨⑨□ |⑦⑧--|
⑤⑥⑦⑧ |⑨---|
78
①①□□ |①---|
⑦⑥⑤④ |②---|
□□□③ |③---|
②②□③ |④⑤⑥⑦|
79
□□①① |①---|
④⑤⑥⑦ |②---|
□□③□ |③---|
②②③□ |④⑤⑥⑦|
80
③③②② |①---|
□□□④ |②---|
①①□④ |③---|
□□□□ |④---|
81
□□□□ |①②③④|
⑤⑥⑦⑧ |--⑤⑥|
□⑨⑨□ |⑦⑧--|
④③②① |⑨---|
82
⑧②①⑤ |①-②-|
④⑥□□ |③-④-|
②⑧⑦③ |⑤-⑥-|
⑥④□□ |⑦-⑧-|
83
⑧②□□ |①-②-|
④⑥⑤① |③-④-|
②⑧□□ |⑤-⑥-|
⑥④③⑦ |⑦-⑧-|
84
□①②⑧ |①-②-|
□⑤⑥④ |③-④-|
③□⑧② |⑤-⑥-|
⑦□④⑥ |⑦-⑧-|
85
②①②□ |①---|
□□□□ |--②-|
□①□□ |----|
③□□③ |③---|
86
⑤⑦③⑦ |①-②-|
①③⑤① |③-④-|
②⑥⑦④ |⑤-⑥-|
□④②⑥ |⑦---|
87
⑤⑦③⑦ |①-②-|
①③⑤① |③-④-|
②⑥⑦④ |⑤-⑥-|
□④②⑥ |⑦---|
88
⑤⑦③⑦ |①-②-|
①③⑤① |③-④-|
②⑥⑧④ |⑤-⑥-|
⑧④②⑥ |⑦-⑧-|
89
□□□□ |①---|
①□□① |②---|
③□□③ |③---|
□□②□ |----|
90
□∨①□ |①---|
□□□① |----|
□□①□ |----|
□①□□ |----|
91
□□□□ |----|
□□□□ |----|
□□□□ |----|
□□□□ |----|
92
□□□□ |----|
□□□□ |----|
□□□□ |----|
□□□□ |----|
93
□□□□ |----|
□□□□ |----|
□□□□ |----|
□□□□ |----|
94
□□□□ |①---|
□□□□ |----|
□□□□ |----|
□①□□ |----|
最終更新:2021年06月21日 03:20