パピポペピプペパ
P*Light
EXTREME
Level: 10.5
BPM: 187
Notes(
hold): 961(10)
 
1
口口口口 |----|
口口口口 |----|
口口口口 |----|
口口口口 |----|
2
口口①口 |①---|
②口口① |②---|
②口口③ |③---|
口口③口
口⑤⑤口
口④④口
口口口口
口口口口 |④-⑤-|
3
④口口④ |--①-|
②口口① |--②-|
口口口口 |③---|
③口口③ |④---|
4
口口①口 |①---|
③口口① |②---|
③口口② |③---|
口口②口
口⑤⑤口
口④④口
口口口口
口口口口 |④-⑤-|
5
口口口口 |①-②-|
③口口② |--③-|
口④④口 |④---|
>━━①
 
口口口口
口⑤口口
口口口口
⑤口口
⑤ |⑤---|
6
①口口① |①---|
⑧口④⑥ |②③④-|
⑤③口⑤ |⑤---|
⑦口②⑨ |⑥⑦⑧⑨|
7
⑧①①⑤ |①-②-|
⑩⑦④⑨ |③④⑤-|
口③⑥口 |⑥⑦⑧-|
⑫②②⑪ |⑨⑩⑪⑫|
8
⑥④口⑤ |①-②-|
⑧口③⑦ |③-④-|
⑩②口⑨ |⑤⑥⑦⑧|
⑫口①⑪ |⑨⑩⑪⑫|
9
④④口口 |①---|
④①②③ |②---|
口②③口 |③---|
口③口口 |④---|
10
口口①① |①---|
口口④口 |②---|
口③口⑤ |③-④-|
口口②② |⑤---|
11
⑦①④⑨ |①-②③|
①口口④ |④-⑤⑥|
②⑧⑤⑩ |⑦-⑧-|
⑦③⑨⑥ |⑨-⑩-|
12
口①口口 |①---|
①④口口 |②---|
⑤口③口 |③-④-|
口②口② |⑤---|
13
口①①口 |①-②③|
⑥口⑤⑥ |④-⑤-|
口⑤口④ |⑥---|
口②③④
 
⑧口口口
口口口口
口口口口
⑧口口口 |⑧-|
14
口口①① |①---|
口口④口 |②---|
口③口⑤ |③-④-|
口口②② |⑤---|
15
⑦①④⑨ |①-②③|
①口口④ |④-⑤⑥|
②⑧⑤⑩ |⑦-⑧-|
⑦③⑨⑥ |⑨-⑩-|
16
口①口口 |①---|
①④口口 |②---|
⑤口③口 |③-④-|
口②口② |⑤---|
17
④①①⑤ |①-②③|
口口口口 |④-⑤-|
口④⑤口
口②③口
 
口口口口
⑥⑦⑧⑥
⑨口口⑩ |⑥⑦⑧⑨|
⑪⑬口⑫ |⑩⑪⑫⑬|
18
⑥②⑤③ |①-②-|
口口⑦⑤ |③-④-|
⑦④口口 |⑤--⑥|
⑥口①口 |--⑦-|
19
口⑤口口 |①-②③|
③②口⑩ |④-⑤-|
⑨⑧⑦⑥ |⑥⑦⑧⑨|
⑪①①④ |⑩-⑪-|
20
③⑤②⑥ |①-②-|
⑤口口⑦ |③-④-|
口⑦④口 |⑤--⑥|
口①口⑥ |--⑦-|
21
④口⑦口 |①-②③|
⑥①①口 |④-⑤-|
⑧口⑦⑧ |⑥-⑦-|
⑤②③⑥ |⑧---|
22
⑥②⑤③ |①-②-|
口口⑦⑤ |③-④-|
⑦④口口 |⑤--⑥|
⑥口①口 |--⑦-|
23
口⑤口口 |①-②③|
③②口⑩ |④-⑤-|
⑨⑧⑦⑥ |⑥⑦⑧⑨|
⑪①①④ |⑩-⑪-|
24
③⑤②⑥ |①-②-|
⑤口口⑦ |③-④-|
口⑦④口 |⑤--⑥|
口①口⑥ |--⑦-|
25
口口口口 |①---|
口②①口 |②---|
①━<口
口②①口
 
④④口口
③口口口
③口④④ |③---|
③口口口 |④---|
26
口口①① |①---|
口口④口 |②---|
口③口⑤ |③-④-|
口口②② |⑤---|
27
⑦①④⑨ |①-②③|
①口口④ |④-⑤⑥|
②⑧⑤⑩ |⑦-⑧-|
⑦③⑨⑥ |⑨-⑩-|
28
口①口口 |①---|
①④口口 |②---|
⑤口③口 |③-④-|
口②口② |⑤---|
29
口①①口 |①-②③|
⑥口⑤⑥ |④-⑤-|
口⑤口④ |⑥---|
口②③④
 
⑧口口口
口口口口
口口口口
⑧口口口 |⑧-|
30
口口①① |①---|
口口④口 |②---|
口③口⑤ |③-④-|
口口②② |⑤---|
31
⑦①④⑨ |①-②③|
①口口④ |④-⑤⑥|
②⑧⑤⑩ |⑦-⑧-|
⑦③⑨⑥ |⑨-⑩-|
32
口①口口 |①---|
①④口口 |②---|
⑤口③口 |③-④-|
口②口② |⑤---|
33
①④④① |①---|
口③③口 |②---|
口③③口 |③---|
②④④② |④---|
34
⑥⑧⑥① |①-②-|
②⑨⑤④ |③-④⑤|
口⑩口③ |-⑥-⑦|
⑦⑪⑦口 |⑧⑨⑩⑪|
35
⑦⑪⑦① |①-②-|
②⑩⑤④ |③-④⑤|
口⑨口③ |-⑥-⑦|
⑥⑧⑥口 |⑧⑨⑩⑪|
36
口口⑪① |①-②-|
②⑩⑤④ |③-④⑤|
口口⑨③ |-⑥-⑦|
⑥⑧口⑦ |⑧⑨⑩⑪|
37
①⑤口② |①②③④|
口⑨⑥口 |--⑤⑥|
③⑦⑩④ |⑦⑧--|
口口⑧⑪ |⑨⑩⑪-|
38
②口①口 |①-②-|
⑥⑧⑥③ |③-④⑤|
⑨④⑪⑤ |-⑥-⑦|
⑦⑩⑦口 |⑧⑨⑩⑪|
39
②口①口 |①-②-|
⑤口④口 |③-④⑤|
口口口口
口口口③
 
口⑦⑩⑦
口⑨口⑪
口⑥⑧⑥ |-⑥-⑦|
口口口口 |⑧⑨⑩⑪|
40
⑧⑪⑨⑤ |①-②-|
③口④口 |③-④-|
⑩⑥口⑫ |⑤⑥⑦⑧|
①口②⑦ |⑨⑩⑪⑫|
41
口口口口 |①---|
口②②口 |----|
口口口口 |②---|
口①①口 |----|
42
①口口⑤ |①---|
⑥⑦⑧⑨ |②③④-|
口④③② |⑤---|
①口口⑤ |⑥⑦⑧⑨|
43
口②①口 |①-②-|
口口口口 |③④⑤-|
口③④⑤
口②①口
⑥口口口
⑦⑩口⑨
⑧口口口 |⑥⑦⑧-|
口⑫口⑪ |⑨⑩⑪⑫|
44
⑤口①⑥ |①---|
⑨⑩⑪⑫ |②③④-|
口②③④ |⑤⑥⑦⑧|
⑦口①⑧ |⑨⑩⑪⑫|
45
⑥②①口 |①-②-|
口⑧⑧口 |③④⑤-|
③④⑤⑦ |⑥-⑦-|
口②①口 |⑧---|
46
⑤口口① |①---|
⑨⑧⑦⑥ |②③④-|
②③④口 |⑤---|
⑤口口① |⑥⑦⑧⑨|
47
口①②口 |①-②-|
口口口口 |③④⑤-|
⑤④③口
口①②口
口口口⑥
⑨口⑩⑦
口口口⑧ |⑥⑦⑧-|
⑪口⑫口 |⑨⑩⑪⑫|
48
口①口口 |①---|
口口口口 |②③④-|
④③②口
口①口口
⑥⑫⑨⑤
口口口口
口口口⑪ |⑤⑥⑦⑧|
⑧⑩口⑦ |⑨⑩⑪⑫|
49
口口④④ |①---|
③②①④ |②---|
口③②口 |③---|
口口③口 |④---|
50
①①口口 |①---|
口④口口 |②---|
⑤口③口 |③-④-|
②②口口 |⑤---|
51
⑨②①口 |①-②-|
⑩⑧⑦⑥ |③④⑤-|
⑪⑤④③ |⑥⑦⑧-|
⑫②①口 |⑨⑩⑪⑫|
52
口口①① |①---|
口口④口 |②---|
口③口⑤ |③-④-|
口口②② |⑤---|
53
口①②⑥ |①-②-|
口⑧⑧口 |③④⑤-|
③④⑤⑦ |⑥-⑦-|
口①②口 |⑧---|
54
①①口口 |①---|
口④口口 |②---|
⑤口③口 |③-④-|
②②口口 |⑤---|
55
⑨②①口 |①-②-|
⑩⑧⑦⑥ |③④⑤-|
⑪⑤④③ |⑥⑦⑧-|
⑫②①口 |⑨⑩⑪⑫|
56
口①口③ |①-②-|
⑧⑦⑥⑤ |③-④-|
⑫⑪⑩⑨ |⑤⑥⑦⑧|
口④口② |⑨⑩⑪⑫|
57
口①①口 |①---|
③口口③ |②---|
口口口口 |③---|
口②②口 |----|
58
⑥②⑤③ |①-②-|
口口口⑤ |③-④-|
⑥④口① |⑤--⑥|
口⑦⑦口 |--⑦-|
59
口⑦口⑨ |①-②③|
③②⑤口 |④-⑤-|
口⑧①⑥ |⑥-⑦-|
④口口口 |⑧-⑨-|
60
③⑤②⑥ |①-②-|
⑤口口口 |③-④-|
①口④⑥ |⑤--⑥|
口⑦⑦口 |--⑦-|
61
口口④口 |①-②③|
⑦①①⑥ |④-⑤-|
②③⑦口 |⑥-⑦-|
⑥⑧⑧⑤ |⑧---|
62
⑥②⑤③ |①-②-|
口口口⑤ |③-④-|
⑥④口① |⑤--⑥|
口⑦⑦口 |--⑦-|
63
口⑦口⑨ |①-②③|
③②⑤口 |④-⑤-|
口⑧①⑥ |⑥-⑦-|
④口口口 |⑧-⑨-|
64
③⑤②⑥ |①-②-|
⑤口口口 |③-④-|
①口④⑥ |⑤--⑥|
口⑦⑦口 |--⑦-|
65
口口口口 |①---|
口①①口 |----|
口②②口 |②---|
口口口口 |----|
66
①口口口 |①---|
⑤①③口 |②---|
口④口口 |③-④-|
②②口口 |⑤---|
67
⑧⑥④② |①-②-|
口口口口 |③-④-|
口口口口 |⑤-⑥-|
⑦⑤③① |⑦-⑧-|
68
口口口① |①---|
口③①⑤ |②---|
口口④口 |③-④-|
口口②② |⑤---|
69
②④⑥⑧ |①-②-|
口口口口 |③-④-|
口口口口 |⑤-⑥-|
①③⑤⑦ |⑦-⑧-|
70
①口口口 |①---|
⑤①③口 |②---|
口④口口 |③-④-|
②②口口 |⑤---|
71
口口①① |①---|
口口④口 |②---|
口③口⑤ |③-④-|
口口②② |⑤---|
72
口①②口 |①---|
①④③② |②---|
⑩⑥⑤⑨ |③④⑤⑥|
口⑧⑦口 |⑦⑧⑨⑩|
73
①④④① |①---|
口③③口 |②---|
口③③口 |③---|
②④④② |④---|
74
⑥⑧⑥① |①-②-|
②⑨⑤④ |③-④⑤|
口⑩口③ |-⑥-⑦|
⑦⑪⑦口 |⑧⑨⑩⑪|
75
⑦⑪⑦① |①-②-|
②⑩⑤④ |③-④⑤|
口⑨口③ |-⑥-⑦|
⑥⑧⑥口 |⑧⑨⑩⑪|
76
口口⑪① |①-②-|
②⑩⑤④ |③-④⑤|
口口⑨③ |-⑥-⑦|
⑥⑧口⑦ |⑧⑨⑩⑪|
77
①⑤口② |①②③④|
口⑨⑥口 |--⑤⑥|
③⑦⑩④ |⑦⑧--|
口口⑧⑪ |⑨⑩⑪-|
75
⑥⑧⑥① |①-②-|
②⑨⑤④ |③-④⑤|
口⑩口③ |-⑥-⑦|
⑦⑪⑦口 |⑧⑨⑩⑪|
76
⑦⑪⑦① |①-②-|
②⑩⑤④ |③-④⑤|
口⑨口③ |-⑥-⑦|
⑥⑧⑥口 |⑧⑨⑩⑪|
77
口口⑪① |①-②-|
②⑩⑤④ |③-④⑤|
口口⑨③ |-⑥-⑦|
⑥⑧口⑦ |⑧⑨⑩⑪|
78
①⑤口② |①②③④|
⑦口⑥⑧ |--⑤⑥|
③⑪⑫④ |⑦⑧⑨⑩|
⑨⑬⑭⑩ |⑪⑫⑬⑭|
79
②⑥⑦③ |①-②-|
⑥④⑤⑦ |③-④⑤|
①口口① |-⑥-⑦|
⑧⑨⑩⑪ |⑧⑨⑩⑪|
80
②⑥⑥③ |①-②-|
⑪⑩⑨⑧ |③-④⑤|
①④⑤① |-⑥-⑦|
口⑦⑦口 |⑧⑨⑩⑪|
81
③⑥⑥② |①-②-|
⑧⑨⑩⑪ |③-④⑤|
①④⑤① |-⑥-⑦|
口⑦⑦口 |⑧⑨⑩⑪|
82
②⑧⑤① |①②③④|
口口口⑨ |--⑤⑥|
④口⑩③ |⑦⑧--|
⑥⑪口⑦ |⑨⑩⑪-|
83
②⑥⑦③ |①-②-|
⑥④⑤⑦ |③-④⑤|
①口口① |-⑥-⑦|
⑧⑨⑩⑪ |⑧⑨⑩⑪|
84
②⑥⑥③ |①-②-|
⑪⑩⑨⑧ |③-④⑤|
①④⑤① |-⑥-⑦|
口⑦⑦口 |⑧⑨⑩⑪|
85
②口口③ |①②③④|
口口口口 |⑤⑥⑦⑧|
④⑧⑤①
⑥口口⑦
⑯⑪⑨口
口⑭⑬口
口口口⑮ |⑨⑩⑪⑫|
口⑩⑫口 |⑬⑭⑮⑯|
86
口③③① |①---|
①口口① |②---|
①②②口 |③---|
②③③② |----|
87
①━<① |①---|
∨口口
∧ |----|
①>━① |----|
口口口口 |----|
88
口口口口 |----|
口口口口 |----|
口口口口 |----|
口口口口 |----|
89
口口口口 |----|
口口口口 |----|
口口口口 |----|
口口口口 |----|
90
口口口口 |----|
口口口口 |----|
口口口口 |----|
口口口口 |----|
91
①口口
① |①---|
口①①口 |----|
①口口
① |----|
口口口口 |----|
 
最終更新:2019年11月20日 10:16