アットウィキロゴ
Diastrophism
かめりあ

BASIC

Level: 9.4
BPM: 228
Notes: 797

1
口口口口 |----|
口口口口 |----|
口口口口 |----|
口口口口 |----|
2
口⑥③口 |①-②-|
⑤②①③ |--③-|
口④口口 |--④-|
口口口口 |⑤-⑥-|
3
口口③③ |--①-|
口②①口 |②---|
口口口口 |③---|
④④口口 |④---|
4
口②口口 |①---|
口口口口 |----|
②①①口 |②---|
口口口口 |----|
5
口口①口 |①---|
口②②口 |----|
口②②① |②---|
口口口口 |----|
6
口口口口 |①---|
①口口② |----|
口口口口 |②---|
口①②口 |----|
7
②②口口 |①---|
口口口口 |----|
口①①口 |②---|
口口③③ |③---|
8
口口③口 |①-②-|
①②口③ |--③-|
④口⑥口 |--④-|
口⑤口口 |⑤-⑥-|
9
口口口③ |--①-|
①②④口 |②---|
口⑤口口 |③-④-|
口口口口 |⑤---|
10
①④③口 |①---|
口口口口 |②---|
口口口口 |③-④-|
②⑤⑤① |--⑤-|
11
口口口① |--①-|
口④②口 |②-③-|
口③⑤口 |④-⑤-|
口口口⑥ |⑥---|
12
口①①口 |①---|
口口口口 |----|
②口口② |②---|
口口口口 |----|
13
口口口口 |----|
口②②口 |----|
口①①口 |①---|
口口口口 |②---|
14
①④③口 |①---|
口口口口 |②---|
口口口口 |③-④-|
②⑤⑤① |--⑤-|
15
口口口① |--①-|
口④②口 |②-③-|
口③⑤口 |④-⑤-|
口口口⑥ |⑥---|
16
口①①口 |①---|
口口口口 |----|
②口口② |②---|
口口口口 |----|
17
口口口口 |----|
口②②口 |----|
口①①口 |①---|
口口口口 |②---|
18
口③①③ |①---|
①口口口 |②---|
口口口② |③---|
④②④口 |④---|
19
口口口口 |①---|
①口口② |②---|
①口口② |----|
口口口口 |----|
20
口口口口 |①---|
①②③④ |②---|
口口口口 |③---|
口口口口 |④---|
21
④口口③ |①---|
口口口口 |②---|
口①②口 |③---|
④口口③ |④---|
22
口③①③ |①---|
①口口口 |②---|
口口口② |③---|
④②④口 |④---|
23
口口口口 |①---|
①口口② |②---|
①口口② |----|
口口口口 |----|
24
④②②④ |①---|
口口口口 |②---|
③①①③ |③---|
口口口口 |④---|
25
口口口口 |①---|
②②②② |----|
口口口口 |②---|
①①①① |----|
26
②③③② |①---|
口⑥⑤④ |②---|
口口口⑦ |③---|
口①①口 |④⑤⑥⑦|
27
⑥口口口 |①②③④|
口口口口 |⑤---|
⑦②①口 |⑥---|
口⑤④③ |⑦---|
28
口②②口 |①---|
口①①④ |②---|
口口口口 |③---|
口③③口 |④---|
29
口口口口 |①---|
①⑤口口 |②---|
口口④口 |③-④-|
②③口② |⑤---|
30
③③②② |①---|
①⑥⑤④ |②---|
①口口⑦ |③---|
口口口口 |④⑤⑥⑦|
31
⑥口口口 |①②③④|
口口口口 |⑤---|
⑦②①口 |⑥---|
口⑤④③ |⑦---|
32
口口①口 |①---|
③口口③ |②---|
口口口口 |③---|
④②口④ |④---|
33
口③③口 |①-②-|
④⑤⑥⑦ |③---|
口①②口 |④-⑤-|
口口口口 |⑥-⑦-|
34
②③③② |①---|
口口口口 |②---|
口④口口 |③---|
口①①口 |④---|
35
口口口口 |①---|
③④⑤① |②---|
⑥⑦⑧口 |③④⑤⑥|
⑨⑩口② |⑦⑧⑨⑩|
36
③③②② |①---|
口⑥⑤④ |②---|
口口口⑦ |③---|
口口①口 |④⑤⑥⑦|
37
口⑥口口 |①②③④|
口口口⑦ |⑤---|
口②①口 |⑥---|
口⑤④③ |⑦---|
38
③口④② |①--②|
①③口口 |--③-|
①口②④ |④---|
口④口口 |----|
39
口②②口 |①---|
口口口口 |----|
口口口口 |②---|
①②②① |----|
40
⑥④④⑥ |①-②-|
①③③① |--③-|
口⑤⑤口 |④-⑤-|
②口口② |--⑥-|
41
口口口口 |①---|
口口口口 |----|
①口口① |----|
口口口口 |----|
42
①④③口 |①---|
口口口口 |②---|
口口口口 |③-④-|
②⑤⑤① |--⑤-|
43
口口口① |--①-|
口④②口 |②-③-|
口③⑤口 |④-⑤-|
口口口⑥ |⑥---|
44
①①①口 |①---|
口口口口 |----|
口口口口 |②---|
②②②口 |----|
45
②①①② |①---|
口②②口 |----|
口口口口 |②---|
口口口口 |----|
46
口⑨⑧口 |①②③-|
⑤口口④ |④-⑤-|
①②③口 |⑥-⑦-|
⑦口口⑥ |⑧-⑨-|
47
④口口③ |①-②-|
⑦口口口 |③-④-|
②⑥⑤① |⑤-⑥-|
⑦口口口 |⑦---|
48
⑥口口⑦ |①-②-|
口⑤④③ |③④⑤-|
②⑧⑨① |⑥-⑦-|
口口口口 |⑧-⑨-|
49
口③④⑦ |①-②-|
口口口口 |③-④-|
口口口⑦ |⑤-⑥-|
①⑤⑥② |⑦---|
50
口⑨⑧口 |①②③-|
⑤口口④ |④-⑤-|
①②③口 |⑥-⑦-|
⑦口口⑥ |⑧-⑨-|
51
④口口③ |①-②-|
⑦口口口 |③-④-|
②⑥⑤① |⑤-⑥-|
⑦口口口 |⑦---|
52
⑥口口⑦ |①-②-|
口⑤④③ |③④⑤-|
②⑧⑨① |⑥-⑦-|
口口口口 |⑧-⑨-|
53
口③④口 |①-②-|
口口口口 |③-④-|
⑤口口⑤ |⑤---|
①口口② |----|
54
⑤口口④ |①②③-|
①②③口 |④-⑤-|
⑦口口⑥ |⑥-⑦-|
口⑨⑧口 |⑧-⑨-|
55
⑦②①口 |①-②-|
口⑥⑤口 |③-④-|
⑦④③口 |⑤-⑥-|
口口口口 |⑦---|
56
口③①③ |①---|
①口口口 |②---|
口口口② |③---|
④②④口 |④---|
57
口⑤口⑥ |①-②-|
①口③口 |③-④-|
口②口④ |⑤---|
口⑤口⑥ |⑥---|
58
①⑥⑦口 |①②③-|
④②口⑤ |④-⑤-|
口口③口 |⑥-⑦-|
口⑧⑨口 |⑧-⑨-|
59
③口口④ |①-②-|
口口口⑦ |③-④-|
①⑤⑥② |⑤-⑥-|
口口口⑦ |⑦---|
60
口①口口 |①---|
①②口口 |----|
①②口口 |②---|
口口②口 |----|
61
口口①口 |①---|
口口口① |----|
口口口① |②---|
②②②② |----|
62
口口口口 |①---|
①①①① |----|
口口口口 |----|
口口口口 |----|
63
口口口口 |----|
口口口口 |----|
口口口口 |----|
口口口口 |----|
64
口口口口 |①---|
口口口口 |----|
①口口① |----|
口口口口 |----|
65
口口口口 |----|
口口口口 |----|
口口口口 |----|
口口口口 |----|
66
口口口口 |①---|
口口口口 |----|
口口口口 |----|
口①①口 |----|
67
口口口口 |----|
口口口口 |----|
口口口口 |----|
口口口口 |----|
68
口口口口 |①---|
①口口① |----|
口口口口 |----|
口口口口 |----|
69
口口口口 |----|
口口口口 |----|
②口口② |①---|
口①①口 |②---|
70
①④③口 |①---|
口口口口 |②---|
口口口口 |③-④-|
②⑤⑤① |--⑤-|
71
口口口① |--①-|
口④②口 |②-③-|
口③⑤口 |④-⑤-|
口口口⑥ |⑥---|
72
口①①口 |①---|
口口口口 |----|
②口口② |②---|
口口口口 |----|
73
口口口口 |----|
口②②口 |----|
口①①口 |①---|
口口口口 |②---|
74
①④③口 |①---|
口口口口 |②---|
口口口口 |③-④-|
②⑤⑤① |--⑤-|
75
口口口① |--①-|
口④②口 |②-③-|
口③⑤口 |④-⑤-|
口口口⑥ |⑥---|
76
口①①口 |①---|
口口口口 |----|
②口口② |②---|
口口口口 |----|
77
口口口口 |----|
②口口② |----|
口口口口 |①---|
口①①口 |②---|
78
①口口② |①---|
④①②④ |--②-|
口②①口 |----|
②③③① |③-④-|
79
口口口口 |----|
口口口口 |----|
口口口口 |----|
口口口口 |----|
80
口口口口 |①---|
口口口口 |----|
①①①① |----|
口口口口 |----|
81
口③口口 |--①-|
④口②④ |②-③-|
口①口口 |④---|
口⑤⑤口 |⑤---|
82
②②①① |①---|
口④④口 |--②-|
②②①① |----|
口③③口 |③-④-|
83
口口口口 |----|
口口口口 |----|
口口口口 |----|
口口口口 |----|
84
口口口口 |①---|
①①①① |----|
③口口③ |----|
口②②口 |②-③-|
85
口口口口 |----|
口口口口 |----|
口口口口 |----|
口口口口 |----|
86
口③①③ |①---|
①口口口 |②---|
口口口② |③---|
④②④口 |④---|
87
口口口口 |①---|
①口口② |②---|
①口口② |----|
口口口口 |----|
88
口口口口 |①---|
①②③④ |②---|
口口口口 |③---|
口口口口 |④---|
89
④口口③ |①---|
口口口口 |②---|
口①②口 |③---|
④口口③ |④---|
90
口③①③ |①---|
①口口口 |②---|
口口口② |③---|
④②④口 |④---|
91
口口口口 |①---|
①口口② |②---|
①口口② |----|
口口口口 |----|
92
④②②④ |①---|
口口口口 |②---|
③①①③ |③---|
口口口口 |④---|
93
口②②口 |①---|
口口口口 |----|
③③③③ |②---|
①①①① |③---|
94
①④⑤② |①-②-|
口口口口 |③---|
口口口口 |④-⑤-|
⑥③③⑥ |⑥---|
95
⑪口口⑪ |①②③④|
①②③④ |⑤⑥⑦⑧|
⑤⑥⑦⑧ |⑨-⑩-|
口⑨⑩口 |⑪---|
96
口②①口 |①-②-|
⑦⑥⑤④ |③---|
⑪⑩⑨⑧ |④⑤⑥⑦|
③口口③ |⑧⑨⑩⑪|
97
③⑤④③ |①-②-|
口口口口 |③---|
口口口口 |④-⑤-|
⑥②①⑥ |⑥---|
98
⑤口口④ |①-②-|
⑥口口⑥ |③---|
③口口③ |④-⑤-|
口②①口 |⑥---|
99
口⑤①口 |①②③④|
口⑥②口 |⑤⑥⑦⑧|
⑪⑦③⑪ |⑨-⑩-|
⑩⑧④⑨ |⑪---|
100
②③③① |①-②-|
④口口④ |③---|
口口口口 |④---|
⑤口口⑤ |⑤---|
101
口④口口 |①-②-|
口口③口 |③-④-|
⑤②口⑤ |⑤---|
口口①口 |----|
102
②⑤④① |①-②-|
口口口口 |③---|
口口口口 |④-⑤-|
⑥③③⑥ |⑥---|
103
⑩口口⑨ |①②③④|
⑧⑦⑥⑤ |⑤⑥⑦⑧|
④③②① |⑨-⑩-|
口⑪⑪口 |⑪---|
104
口①②口 |①-②-|
⑧⑨⑩⑪ |③---|
④⑤⑥⑦ |④⑤⑥⑦|
③口口③ |⑧⑨⑩⑪|
105
①④④② |①-②-|
口口口口 |③---|
口口口口 |④---|
口③③口 |----|
106
③口④② |①--②|
①③口口 |--③-|
①口②④ |④---|
口④口口 |----|
107
口②②口 |①---|
口口口口 |----|
口口口口 |②---|
①②②① |----|
108
⑥④④⑥ |①-②-|
①③③① |--③-|
口⑤⑤口 |④-⑤-|
②口口② |--⑥-|
109
口口口口 |①---|
②口口② |②---|
①④④① |③---|
口③③口 |④---|
110
①②③④ |①②③④|
⑤⑥⑦⑧ |⑤⑥⑦⑧|
⑨口口⑩ |⑨-⑩-|
⑪口口⑫ |⑪-⑫-|
111
①②③④ |①②③④|
⑤⑥⑦⑧ |⑤⑥⑦⑧|
⑨口口⑩ |⑨-⑩-|
⑪口口⑫ |⑪-⑫-|
112
①②③④ |①②③④|
⑤⑥⑦⑧ |⑤⑥⑦⑧|
⑨口口⑩ |⑨-⑩-|
⑪口口⑫ |⑪-⑫-|
113
口口口口 |①---|
口口口口 |②---|
③①①口 |③---|
口②②口 |----|
114
①②③④ |①②③④|
⑤⑥⑦⑧ |⑤⑥⑦⑧|
⑨⑩⑪⑫ |⑨⑩⑪⑫|
⑬⑭⑮⑯ |⑬⑭⑮⑯|
115
①②③④ |①②③④|
⑤⑥⑦⑧ |⑤⑥⑦⑧|
⑨⑩⑪⑫ |⑨⑩⑪⑫|
⑬⑭⑮⑯ |⑬⑭⑮⑯|
116
①③②⑥ |①-②-|
③④⑤⑥ |--③-|
⑥④⑤口 |--④-|
⑥口口口 |⑤-⑥-|

accuracy: 100%
最終更新:2022年03月30日 09:41