アットウィキロゴ
Diastrophism
かめりあ

ADVANCED

Level: 9.6
BPM: 228
Notes: 816

1
口口口口 |----|
口口口口 |----|
口口口口 |----|
口口口口 |----|
2
口口口口 |①---|
②口口① |----|
口口口口 |②---|
口②①口 |----|
3
口口②② |①---|
口①①口 |----|
口①①口 |②---|
③③口口 |③---|
4
口③口⑥ |①-②-|
③口⑤口 |--③-|
口①②④ |--④-|
口口口口 |⑤-⑥-|
5
⑤口口口 |--①-|
口④口口 |②---|
口②③口 |③-④-|
①口口口 |⑤---|
6
口③口口 |①-②-|
③口②① |--③-|
口⑥口④ |--④-|
口口⑤口 |⑤-⑥-|
7
③③口口 |--①-|
口口②① |②---|
口口口口 |③---|
口口④④ |④---|
8
口口②口 |①---|
口口口口 |----|
口①①② |②---|
口口口口 |----|
9
口①口口 |①---|
②③③② |②---|
①口口口 |③---|
口口口口 |----|
10
口口②口 |①---|
口口口② |----|
口①①口 |②---|
口口口口 |----|
11
口①口口 |----|
①口口口 |----|
口口口口 |①---|
口口口口 |----|
12
①口②口 |①-②-|
口⑥⑤口 |③---|
③⑥⑤口 |④---|
口④④口 |⑤-⑥-|
13
④②口④ |--①-|
口口口口 |②---|
口口口① |③---|
口③③口 |④---|
14
口口②口 |①---|
口口口② |----|
口①①口 |②---|
口口口口 |----|
15
口①口口 |----|
①口口口 |----|
口口口口 |①---|
口口口口 |----|
16
①口②口 |①-②-|
口⑥⑤口 |③---|
③⑥⑤口 |④---|
口④④口 |⑤-⑥-|
17
④②口④ |--①-|
口口口口 |②---|
口口口① |③---|
口③③口 |④---|
18
口口口口 |①---|
④③②① |②---|
口口口口 |③---|
口口口口 |④---|
19
③口口④ |①---|
口口口口 |②---|
口②①口 |③---|
③口口④ |④---|
20
③①③口 |①---|
口口口① |②---|
②口口口 |③---|
口④②④ |④---|
21
口口口口 |①---|
②口口① |②---|
②口口① |----|
口口口口 |----|
22
口口口口 |①-②-|
⑦⑤③① |③-④-|
⑧⑥④② |⑤-⑥-|
口口口口 |⑦-⑧-|
23
⑤②①⑥ |①-②-|
口口口口 |③-④-|
口口口口 |⑤---|
⑤④③⑥ |⑥---|
24
④②②④ |①---|
口口口口 |②---|
③①①③ |③---|
口口口口 |④---|
25
口口口口 |①---|
②②②② |----|
口口口口 |②---|
①①①① |----|
26
②③③② |①---|
口口口口 |②---|
口④口口 |③---|
口①①口 |④---|
27
口口口口 |①---|
③④⑤① |②---|
⑥⑦⑧口 |③④⑤⑥|
⑨⑩口② |⑦⑧⑨⑩|
28
③③②② |①---|
口⑥⑤④ |②---|
口口口⑦ |③---|
口口①口 |④⑤⑥⑦|
29
口口⑥口 |①②③④|
⑦口口口 |⑤---|
口②①口 |⑥-⑦-|
⑧⑤④③ |⑧---|
30
②②③③ |①---|
口口口① |②---|
口④口① |③---|
口口口口 |④---|
31
口口口口 |①---|
③④⑤① |②---|
⑥⑦⑧口 |③④⑤⑥|
⑨⑩口② |⑦⑧⑨⑩|
32
③口口② |①---|
口口口口 |②---|
④口口口 |③---|
口口①口 |④---|
33
口③③口 |①-②-|
⑦⑥⑤④ |③---|
口②①口 |④-⑤-|
口口口口 |⑥-⑦-|
34
②③③② |①---|
口⑥⑤④ |②---|
口口口⑦ |③---|
口①①口 |④⑤⑥⑦|
35
⑥口口口 |①②③④|
口口口口 |⑤---|
⑦②①口 |⑥---|
口⑤④③ |⑦---|
36
口②②④ |①---|
口①①口 |②---|
口口口口 |③---|
口③③口 |④---|
37
①口口口 |①---|
口⑤口口 |②---|
②口④② |③-④-|
口③口口 |⑤---|
38
口②②口 |①---|
口口口口 |----|
口口口口 |②---|
①②②① |----|
39
②④口③ |①--②|
口口③① |--③-|
④②口① |④---|
口口④口 |----|
40
⑥④④⑥ |①-②-|
①③③① |--③-|
口⑤⑤口 |④-⑤-|
②口口② |--⑥-|
41
口口口口 |①---|
口口口口 |----|
①口口① |----|
口口口口 |----|
42
口口②口 |①---|
口口口② |----|
口①①口 |②---|
口口口口 |----|
43
口①口口 |----|
①口口口 |----|
口口口口 |①---|
口口口口 |----|
44
①④③口 |①---|
口口口口 |②---|
口口口口 |③-④-|
②⑤⑤① |--⑤-|
45
④口口④ |--①-|
口①口口 |②-③-|
口口②口 |④---|
口口口③ |----|
46
⑥口口⑦ |①②③-|
口③②① |④-⑤-|
④口口⑤ |⑥-⑦-|
口⑧⑨口 |⑧-⑨-|
47
口口口⑦ |①-②-|
①⑤⑥② |③-④-|
口口口⑦ |⑤-⑥-|
③口口④ |⑦---|
48
口口口口 |①-②-|
①⑨⑧② |③④⑤-|
③④⑤口 |⑥-⑦-|
⑦口口⑥ |⑧-⑨-|
49
②⑥⑤① |①-②-|
⑦口口口 |③-④-|
口口口口 |⑤-⑥-|
⑦④③口 |⑦---|
50
⑥口口⑦ |①②③-|
口③②① |④-⑤-|
④口口⑤ |⑥-⑦-|
口⑧⑨口 |⑧-⑨-|
51
口口口⑦ |①-②-|
①⑤⑥② |③-④-|
口口口⑦ |⑤-⑥-|
③口口④ |⑦---|
52
口口口口 |①-②-|
①⑨⑧② |③④⑤-|
③④⑤口 |⑥-⑦-|
⑦口口⑥ |⑧-⑨-|
53
②口口① |①-②-|
口口口口 |③-④-|
口⑤⑤口 |⑤---|
口④③口 |----|
54
③①③口 |①---|
口口口① |②---|
②口口口 |③---|
口④②④ |④---|
55
⑥口⑤口 |①-②-|
口③口① |③-④-|
④口②口 |⑤---|
⑥口⑤口 |⑥---|
56
口⑧⑨口 |①-②-|
③④⑤口 |③④⑤-|
⑥①②⑦ |⑥-⑦-|
口口口口 |⑧-⑨-|
57
口口口⑦ |①-②-|
口⑤⑥口 |③-④-|
口③④⑦ |⑤-⑥-|
①口口② |⑦---|
58
③①③口 |①---|
口口口① |②---|
②口口口 |③---|
口④②④ |④---|
59
⑥口⑤口 |①-②-|
口③口① |③-④-|
④口②口 |⑤---|
⑥口⑤口 |⑥---|
60
⑦⑧⑨① |①②③-|
口④②口 |--④⑤|
口③⑤口 |⑥---|
口口口⑥ |⑦⑧⑨-|
61
口口口口 |--①②|
⑤口口④ |③---|
口⑦⑥口 |④-⑤-|
①②③口 |⑥-⑦-|
62
口①①口 |①---|
口①①口 |----|
口口口口 |----|
口口口口 |----|
63
口口口口 |----|
口口口口 |----|
口口口口 |----|
口口口口 |----|
64
口口口口 |①---|
口口口口 |----|
①口口① |----|
口口口口 |----|
65
口口口口 |----|
口口口口 |----|
口口口口 |----|
口口口口 |----|
66
口口口口 |①---|
口口口口 |----|
口口口口 |----|
口①①口 |----|
67
口口口口 |----|
口口口口 |----|
口口口口 |----|
口口口口 |----|
68
口口口口 |①---|
①口口① |----|
口口口口 |----|
口口口口 |----|
69
口口口口 |----|
口口口口 |----|
②口口② |①---|
口①①口 |②---|
70
口口②口 |①---|
口口口② |----|
口①①口 |②---|
口口口口 |----|
71
口①口口 |----|
①口口口 |----|
口口口口 |①---|
口口口口 |----|
72
①口②口 |①-②-|
口⑥⑤口 |③---|
③⑥⑤口 |④---|
口④④口 |⑤-⑥-|
73
④②口④ |--①-|
口口口口 |②---|
口口口① |③---|
口③③口 |④---|
74
口口②口 |①---|
口口口② |----|
口①①口 |②---|
口口口口 |----|
75
口①口口 |----|
①口口口 |----|
口口口口 |①---|
口口口口 |----|
76
①口②口 |①-②-|
口⑥⑤口 |③---|
③⑥⑤口 |④---|
口④④口 |⑤-⑥-|
77
④②口④ |--①-|
口口口口 |②---|
口口口① |③---|
口③③口 |④---|
78
口口口口 |①---|
①①①① |----|
口口口口 |----|
口口口口 |----|
79
口口③口 |--①-|
④②口④ |②-③-|
口口①口 |④---|
口⑤⑤口 |⑤---|
80
②口口① |①---|
④②①④ |②---|
口①②口 |----|
①③③② |③-④-|
81
口口口口 |----|
口口口口 |----|
口口口口 |----|
口口口口 |----|
82
口口口口 |①---|
口口口口 |----|
①①①① |----|
口口口口 |----|
83
口口③口 |--①-|
④②口④ |②-③-|
口口①口 |④---|
口⑤⑤口 |⑤---|
84
①①②② |①---|
口④④口 |--②-|
①①②② |----|
口③③口 |③-④-|
85
口口口口 |----|
口口口口 |----|
口口口口 |----|
口口口口 |----|
86
口口口口 |①---|
④③②① |②---|
口口口口 |③---|
口口口口 |④---|
87
③口口④ |①---|
口口口口 |②---|
口②①口 |③---|
③口口④ |④---|
88
③①③口 |①---|
口口口① |②---|
②口口口 |③---|
口④②④ |④---|
89
口口口口 |①---|
②口口① |②---|
②口口① |----|
口口口口 |----|
90
口口口口 |①-②-|
⑦⑤③① |③-④-|
⑧⑥④② |⑤-⑥-|
口口口口 |⑦-⑧-|
91
⑤②①⑥ |①-②-|
口口口口 |③-④-|
口口口口 |⑤---|
⑤④③⑥ |⑥---|
92
④②②④ |①---|
口口口口 |②---|
③①①③ |③---|
口口口口 |④---|
93
口②②口 |①---|
口口口口 |----|
③③③③ |②---|
①①①① |③---|
94
①口口② |①-②-|
④⑤⑥⑦ |③---|
⑧⑨⑩⑪ |④⑤⑥⑦|
口③③口 |⑧⑨⑩⑪|
95
①口口② |①-②-|
④⑤⑥⑦ |③---|
⑧⑨⑩⑪ |④⑤⑥⑦|
口③③口 |⑧⑨⑩⑪|
96
⑤②①④ |①-②-|
口口口口 |③---|
口口口口 |④-⑤-|
③⑥⑥③ |⑥---|
97
口⑩⑨口 |①②③④|
④③②① |⑤⑥⑦⑧|
⑧⑦⑥⑤ |⑨-⑩-|
⑪口口⑪ |⑪---|
98
②⑧④① |①-②-|
③⑨⑤③ |③---|
口⑩⑥口 |④⑤⑥⑦|
口⑪⑦口 |⑧⑨⑩⑪|
99
口⑧④口 |①-②-|
口⑨⑤口 |③---|
③⑩⑥③ |④⑤⑥⑦|
②⑪⑦① |⑧⑨⑩⑪|
100
②口口① |①-②-|
④口口④ |③---|
③口口③ |④---|
⑤口口⑤ |⑤---|
101
口口④口 |①-②-|
口③口口 |③-④-|
⑤口②⑤ |⑤---|
口①口口 |----|
102
②口口① |①-②-|
⑪⑩⑨⑧ |③---|
⑦⑥⑤④ |④⑤⑥⑦|
口③③口 |⑧⑨⑩⑪|
103
②口口① |①-②-|
⑪⑩⑨⑧ |③---|
⑦⑥⑤④ |④⑤⑥⑦|
口③③口 |⑧⑨⑩⑪|
104
④①②⑤ |①-②-|
口口口口 |③---|
口口口口 |④-⑤-|
③⑥⑥③ |⑥---|
105
口⑨⑨口 |①②③④|
⑤⑥⑦⑧ |⑤⑥⑦⑧|
①②③④ |⑨---|
口口口口 |----|
106
口②②口 |①---|
口口口口 |----|
口口口口 |②---|
①②②① |----|
107
②④口③ |①--②|
口口③① |--③-|
④②口① |④---|
口口④口 |----|
108
⑥④④⑥ |①-②-|
①③③① |--③-|
口⑤⑤口 |④-⑤-|
②口口② |--⑥-|
109
口口口口 |①---|
②口口② |②---|
①④④① |③---|
口③③口 |④---|
110
⑤⑥⑦⑧ |①-②-|
⑨⑩⑪⑫ |③-④-|
①口口② |⑤⑥⑦⑧|
③口口④ |⑨⑩⑪⑫|
111
⑤⑥⑦⑧ |①-②-|
⑨⑩⑪⑫ |③-④-|
①口口② |⑤⑥⑦⑧|
③口口④ |⑨⑩⑪⑫|
112
⑤⑥⑦⑧ |①-②-|
⑨⑩⑪⑫ |③-④-|
①口口② |⑤⑥⑦⑧|
③口口④ |⑨⑩⑪⑫|
113
口口口口 |①---|
口口口口 |②---|
口①①③ |③---|
口②②口 |----|
114
④③②① |①②③④|
⑧⑦⑥⑤ |⑤⑥⑦⑧|
⑫⑪⑩⑨ |⑨⑩⑪⑫|
⑯⑮⑭⑬ |⑬⑭⑮⑯|
115
④③②① |①②③④|
⑧⑦⑥⑤ |⑤⑥⑦⑧|
⑫⑪⑩⑨ |⑨⑩⑪⑫|
⑯⑮⑭⑬ |⑬⑭⑮⑯|
116
⑥②③① |①-②-|
⑥⑤④③ |--③-|
口⑤④⑥ |--④-|
口口口⑥ |⑤-⑥-|

accuracy: 100%
最終更新:2022年03月30日 12:09