アットウィキロゴ
Diastrophism
かめりあ

EXTREME

Level: 10.3
BPM: 228
Notes: 1005

1
口口口口 |----|
口口口口 |----|
口口口口 |----|
口口口口 |----|
2
口⑥③口 |①-②-|
⑤②①③ |--③-|
口④口口 |--④-|
口口口口 |⑤-⑥-|
3
口口③③ |--①-|
口②①口 |②---|
口口口口 |③---|
④④口口 |④---|
4
口③口⑥ |①-②-|
③口⑤口 |--③-|
口①②④ |--④-|
口口口口 |⑤-⑥-|
5
⑤口口口 |--①-|
口④口口 |②---|
口②③口 |③-④-|
①口口口 |⑤---|
6
口③口口 |①-②-|
③口②① |--③-|
口⑥口④ |--④-|
口口⑤口 |⑤-⑥-|
7
③③口口 |--①-|
口口②① |②---|
口口口口 |③---|
口口④④ |④---|
8
口口③口 |①-②-|
①②口③ |--③-|
④口⑥口 |--④-|
口⑤口口 |⑤-⑥-|
9
口⑤④③ |--①-|
①②⑥口 |②-③④|
口⑦口口 |⑤-⑥-|
口口口口 |⑦---|
10
①④③口 |①---|
口口口口 |②---|
口口口口 |③-④-|
②⑤⑤① |--⑤-|
11
口口口① |--①-|
口④②口 |②-③-|
口③⑤口 |④-⑤-|
口口口⑥ |⑥---|
12
①口②口 |①-②-|
口⑥⑤口 |③---|
③⑥⑤口 |④---|
口④④口 |⑤-⑥-|
13
口②口口 |--①-|
④口口④ |②---|
口口口① |③---|
口③③口 |④---|
14
①④③口 |①---|
口口口口 |②---|
口口口口 |③-④-|
②⑤⑤① |--⑤-|
15
口口口① |--①-|
口④②口 |②-③-|
口③⑤口 |④-⑤-|
口口口⑥ |⑥---|
16
①口②口 |①-②-|
口⑥⑤口 |③---|
③⑥⑤口 |④---|
口④④口 |⑤-⑥-|
17
口②口口 |--①-|
④口口④ |②---|
口口口① |③---|
口③③口 |④---|
18
①口口③ |①---|
口③①④ |②---|
②①③② |③---|
口口口④ |④---|
19
③①①④ |①---|
①口口口 |②---|
口口口② |③---|
③②②④ |④---|
20
③①口口 |①---|
④口③① |②---|
②③①② |③---|
④口口口 |④---|
21
④①①③ |①---|
口口口① |②---|
②口口口 |③---|
④②②③ |④---|
22
口①口口 |①-②-|
口口口③ |③-④-|
⑤口②口 |⑤-⑥-|
⑦④⑥⑧ |⑦-⑧-|
23
①②③④ |①②③④|
⑤⑥⑦⑧ |⑤⑥⑦⑧|
⑨⑩⑪⑫ |⑨⑩⑪⑫|
⑬⑭⑮⑯ |⑬⑭⑮⑯|
24
①口口② |①---|
口③③口 |②---|
口④④口 |③---|
口口口口 |④---|
25
口口口口 |①---|
②②②② |----|
口口口口 |②---|
口①①口 |----|
26
口②②口 |①---|
口口口口 |②---|
⑦⑥⑤④ |③---|
③①①③ |④⑤⑥⑦|
27
口口口⑤ |①②③④|
④③②① |⑤---|
⑬⑫⑪⑩ |⑥⑦⑧⑨|
⑨⑧⑦⑥ |⑩⑪⑫⑬|
28
口②口③ |①---|
④⑤⑥① |②---|
⑦口口口 |③---|
口口口口 |④⑤⑥⑦|
29
口⑦口口 |①②③④|
⑧口口⑧ |⑤---|
口①②⑥ |⑥-⑦-|
③④⑤口 |⑧---|
30
②口口② |①---|
口①①口 |②---|
④⑤⑥⑦ |③---|
口③③口 |④⑤⑥⑦|
31
⑤口口口 |①②③④|
①②③④ |⑤---|
⑩⑪⑫⑬ |⑥⑦⑧⑨|
⑥⑦⑧⑨ |⑩⑪⑫⑬|
32
口③③口 |①---|
①口口② |②---|
口口口口 |③---|
口④④口 |④---|
33
①口④口 |①-②-|
口⑤②口 |③---|
③口⑥口 |④-⑤-|
口⑦口口 |⑥-⑦-|
34
口④口口 |①---|
③⑤口② |②---|
③⑥口② |③---|
①⑦口① |④⑤⑥⑦|
35
⑥⑩①⑤ |①②③④|
⑦⑪②口 |⑤---|
⑧⑫③口 |⑥⑦⑧⑨|
⑨⑬④口 |⑩⑪⑫⑬|
36
口口①口 |①---|
④⑤⑥③ |②---|
⑦口口口 |③---|
口口口② |④⑤⑥⑦|
37
口⑦⑥口 |①②③④|
⑨口口⑧ |⑤---|
口①②口 |⑥-⑦-|
③④⑤口 |⑧-⑨-|
38
④口口② |①--②|
口口③口 |--③-|
①①口口 |④---|
④口口口 |----|
39
口口口④ |①--②|
口③口口 |--③-|
②口①① |④---|
口口口④ |----|
40
口①①口 |①-②-|
④口口④ |--③-|
③②②③ |④-⑤-|
⑥⑤⑤⑥ |--⑥-|
41
①①①① |①---|
口口口口 |----|
口口口口 |----|
口口口口 |----|
42
①④③口 |①---|
口口口口 |②---|
口口口口 |③-④-|
②⑤⑤① |--⑤-|
43
口口口① |--①-|
口④②口 |②-③-|
口③⑤口 |④-⑤-|
口口口⑥ |⑥---|
44
①⑤①口 |①---|
③口口④ |②---|
口口口② |③-④-|
口口口口 |--⑤-|
45
口口⑤② |①-②-|
口③⑤口 |③-④-|
①口口口 |⑤---|
⑤⑤④口 |----|
46
口⑪⑩⑨ |①②③④|
口⑤⑦口 |⑤-⑥-|
①②③④ |⑦-⑧-|
口⑧⑥口 |⑨⑩⑪-|
47
口口口口 |①-②-|
①⑨⑦口 |③④⑤⑥|
⑥⑤④③ |⑦-⑧-|
②⑧⑩口 |⑨-⑩-|
48
⑥⑤④③ |①-②-|
②⑨⑦① |③④⑤⑥|
口口口口 |⑦-⑧-|
⑧口口⑩ |⑨-⑩-|
49
⑥口口④ |①-②-|
口口口口 |③-④-|
①③⑤② |⑤-⑥-|
口⑦⑦口 |⑦---|
50
口⑧⑥口 |①②③④|
①②③④ |⑤-⑥-|
口⑤⑦口 |⑦-⑧-|
口⑪⑩⑨ |⑨⑩⑪-|
51
②⑧⑩口 |①-②-|
⑥⑤④③ |③④⑤⑥|
①⑨⑦口 |⑦-⑧-|
口口口口 |⑨-⑩-|
52
⑧口口⑩ |①-②-|
口口口口 |③④⑤⑥|
②⑨⑦① |⑦-⑧-|
⑥⑤④③ |⑨-⑩-|
53
口⑦⑦口 |①-②-|
①③⑤② |③-④-|
口口口口 |⑤-⑥-|
⑥口口④ |⑦---|
54
口⑪⑩⑨ |①②③④|
口⑤⑦口 |⑤-⑥-|
①②③④ |⑦-⑧-|
口⑧⑥口 |⑨⑩⑪-|
55
口口口口 |①-②-|
①⑦⑦口 |③④⑤⑥|
⑥⑤④③ |⑦---|
②口⑧⑧ |⑧---|
56
⑥⑤④③ |①-②-|
②⑨⑦① |③④⑤⑥|
口口口口 |⑦-⑧-|
⑧口口⑩ |⑨-⑩-|
57
⑤⑤口④ |①-②-|
口口口口 |③-④-|
①③口② |⑤---|
⑥⑥口口 |⑥---|
58
口⑧⑥口 |①②③④|
①②③④ |⑤-⑥-|
口⑤⑦口 |⑦-⑧-|
口⑪⑩⑨ |⑨⑩⑪-|
59
②⑧⑧口 |①-②-|
⑥⑤④③ |③④⑤⑥|
①⑦⑦口 |⑦---|
口口口口 |⑧---|
60
③口口① |①---|
④口口② |②---|
①口口③ |③---|
④①③② |④---|
61
⑥②①① |①---|
口①①⑤ |②---|
④①②口 |③-④-|
口口口③ |⑤-⑥-|
62
口口口口 |①---|
口①①口 |----|
口口口口 |----|
口①①口 |----|
63
口口口口 |----|
口口口口 |----|
口口口口 |----|
口口口口 |----|
64
口口口口 |①---|
口口口口 |----|
①口口① |----|
口口口口 |----|
65
口口口口 |----|
口口口口 |----|
口口口口 |----|
口口口口 |----|
66
口口口口 |①---|
口口口口 |----|
口口口口 |----|
口①①口 |----|
67
口口口口 |----|
口口口口 |----|
口口口口 |----|
口口口口 |----|
68
口口口口 |①---|
①口口① |----|
口口口口 |----|
口口口口 |----|
69
口口口口 |----|
②口口② |----|
口口口口 |①---|
口①①口 |②---|
70
①④③口 |①---|
口口口口 |②---|
口口口口 |③-④-|
②⑤⑤① |--⑤-|
71
口口口① |--①-|
口④②口 |②-③-|
口③⑤口 |④-⑤-|
口口口⑥ |⑥---|
72
①口②口 |①-②-|
口⑥⑤口 |③---|
③⑥⑤口 |④---|
口④④口 |⑤-⑥-|
73
口②口口 |--①-|
④口口④ |②---|
口口口① |③---|
口③③口 |④---|
74
①④③口 |①---|
口口口口 |②---|
口口口口 |③-④-|
②⑤⑤① |--⑤-|
75
口口口① |--①-|
口④②口 |②-③-|
口③⑤口 |④-⑤-|
口口口⑥ |⑥---|
76
①口②口 |①-②-|
口⑥⑤口 |③---|
③⑥⑤口 |④---|
口④④口 |⑤-⑥-|
77
口②口口 |--①-|
④口口④ |②---|
口口口① |③---|
口③③口 |④---|
78
①口口② |①---|
④①②④ |--②-|
口②①口 |----|
②③③① |③-④-|
79
口④③口 |--①-|
口②口口 |②-③-|
④口①口 |④---|
口⑤⑤口 |⑤---|
80
②口口① |①---|
④②①④ |--②-|
口①②口 |----|
①③③② |③-④-|
81
口③④口 |--①-|
口口②口 |②-③-|
口①口④ |④---|
口⑤⑤口 |⑤---|
82
②③③① |①---|
①①②② |--②-|
④口口④ |----|
①口口② |③-④-|
83
③⑤⑤② |--①-|
口口口口 |②-③-|
口口口口 |④---|
④①①④ |⑤---|
84
⑩口口⑩ |①②③④|
⑤⑥②① |--⑤⑥|
⑦⑧④③ |⑦⑧--|
口⑨⑨口 |⑨-⑩-|
85
口口口口 |----|
口口口口 |----|
口口口口 |----|
口口口口 |----|
86
①口口③ |①---|
口③①④ |②---|
②①③② |③---|
口口口④ |④---|
87
③①①④ |①---|
①口口口 |②---|
口口口② |③---|
③②②④ |④---|
88
③①口口 |①---|
④口③① |②---|
②③①② |③---|
④口口口 |④---|
89
④①①③ |①---|
口口口① |②---|
②口口口 |③---|
④②②③ |④---|
90
口①口口 |①-②-|
口口口③ |③-④-|
⑤口②口 |⑤-⑥-|
⑦④⑥⑧ |⑦-⑧-|
91
①②③④ |①②③④|
⑤⑥⑦⑧ |⑤⑥⑦⑧|
⑨⑩⑪⑫ |⑨⑩⑪⑫|
⑬⑭⑮⑯ |⑬⑭⑮⑯|
92
①口口② |①---|
口③口口 |②---|
口口④口 |③---|
口口口口 |④---|
93
③口③口 |①---|
①口②① |----|
①②口① |②---|
③口③口 |③---|
94
⑧口口④ |①-②-|
⑨①口⑤ |③---|
⑩口②⑥ |④⑤⑥⑦|
⑪③口⑦ |⑧⑨⑩⑪|
95
⑬⑤①⑨ |①②③④|
⑭⑥②⑩ |⑤⑥⑦⑧|
⑮⑦③⑪ |⑨⑩⑪⑫|
⑯⑧④⑫ |⑬⑭⑮⑯|
96
口⑦①⑪ |①-②-|
口⑥③⑩ |③---|
口⑤②⑨ |④⑤⑥⑦|
口④③⑧ |⑧⑨⑩⑪|
97
④⑫⑧口 |①②③④|
③⑪⑦口 |⑤⑥⑦⑧|
②⑩⑥口 |⑨⑩⑪⑫|
①⑨⑤⑬ |⑬---|
98
口口口① |①-②-|
⑧⑨⑩⑪ |③---|
④⑤⑥⑦ |④⑤⑥⑦|
②口③口 |⑧⑨⑩⑪|
99
①②③④ |①②③④|
⑬⑭⑮⑯ |⑤⑥⑦⑧|
⑨⑩⑪⑫ |⑨⑩⑪⑫|
⑤⑥⑦⑧ |⑬⑭⑮⑯|
100
①③②③ |①-②-|
口口口口 |③---|
④口口⑤ |④---|
④口口⑤ |⑤---|
101
⑤口④⑤ |①-②-|
⑤③口⑤ |③-④-|
口口②口 |⑤---|
口①口口 |----|
102
④口口⑧ |①-②-|
⑤口①⑨ |③---|
⑥②口⑩ |④⑤⑥⑦|
⑦口③⑪ |⑧⑨⑩⑪|
103
⑨①⑤⑬ |①②③④|
⑩②⑥⑭ |⑤⑥⑦⑧|
⑪③⑦⑮ |⑨⑩⑪⑫|
⑫④⑧⑯ |⑬⑭⑮⑯|
104
⑪①⑦口 |①-②-|
⑩③⑥口 |③---|
⑨②⑤口 |④⑤⑥⑦|
⑧③④口 |⑧⑨⑩⑪|
105
口⑧口④ |①②③④|
口⑦口③ |⑤⑥⑦⑧|
口⑥口② |⑨---|
口⑤⑨① |----|
106
④口口口 |①--②|
口口③② |--③-|
①口①口 |④---|
④口口口 |----|
107
口口口④ |①--②|
②③口口 |--③-|
口①口① |④---|
口口口④ |----|
108
口①①口 |①-②-|
④口口④ |--③-|
③②②③ |④-⑤-|
⑥⑤⑤⑥ |--⑥-|
109
①①①① |①---|
口②③④ |②---|
口②③④ |③---|
口口口口 |④---|
110
①⑤⑨⑬ |①②③④|
②⑥⑩⑭ |⑤⑥⑦⑧|
③⑦⑪⑮ |⑨⑩⑪⑫|
④⑧⑫⑯ |⑬⑭⑮⑯|
111
①⑤⑨⑬ |①②③④|
②⑥⑩⑭ |⑤⑥⑦⑧|
③⑦⑪⑮ |⑨⑩⑪⑫|
④⑧⑫⑯ |⑬⑭⑮⑯|
112
①⑤⑨⑬ |①②③④|
②⑥⑩⑭ |⑤⑥⑦⑧|
③⑦⑪⑮ |⑨⑩⑪⑫|
④⑧⑫⑯ |⑬⑭⑮⑯|
113
①口口口 |①---|
④④口口 |②---|
③③口口 |③-④-|
②口口口 |----|
114
⑯⑫⑧④ |①②③④|
⑮⑪⑦③ |⑤⑥⑦⑧|
⑭⑩⑥② |⑨⑩⑪⑫|
⑬⑨⑤① |⑬⑭⑮⑯|
115
⑯⑫⑧④ |①②③④|
⑮⑪⑦③ |⑤⑥⑦⑧|
⑭⑩⑥② |⑨⑩⑪⑫|
⑬⑨⑤① |⑬⑭⑮⑯|
116
口⑤⑤⑥ |①-②-|
⑥口③② |--③-|
口口③⑥ |--④-|
⑥④④① |⑤-⑥-|

accuracy: 100%
最終更新:2022年03月30日 14:46