アットウィキロゴ
ヘンゼルとグレーテル
RoughSketch ft.Aikapin & Chiyoko

EXTREME

Level: 10.3
BPM: 190
Notes(hold): 759(25)

1
口口口口 |----|
口口口口 |----|
口口口口 |----|
口口口口
2
口口②口 |①---|
口口口口 |②---|
①口口① |③---|
口③口口
3
口②口口 |①---|
①口④① |②---|
口口口口 |③-④-|
口口③口
4
口口②口 |①---|
口口口口 |②---|
①口口① |③---|
口③口口
5
口②口口 |①---|
①口④① |②---|
口口口口 |③-④-|
口口③口
6
②口口口 |①---|
口口口口 |②---|
①口口① |③---|
口③口口
7
口口口② |①---|
①口④① |②---|
口口口口 |③-④-|
口口③口
8
口口②口 |①---|
口口口口 |②---|
①口口① |③---|
口③口口
9
口②口口 |①---|
口口口口 |②---|
口口口口 |③---|
①口③①
10
口口口口 |①---|
①①①① |----|
口口口口 |----|
口口口口
11
口口口口 |----|
口口口口 |----|
口口口口 |----|
口口口口
12
口③口口 |①---|
②口①口 |②---|
②③①口 |③---|
②口①口
13
③口①③ |①---|
③①口③ |②---|
口口②口 |③---|
口②口口
14
口口口口 |①---|
口②②口 |②---|
口口口口 |③---|
③③①①
15
④②口③ |①---|
①口口口 |②---|
②①口① |③-④-|
口口口∧
16
口口口口 |①---|
口②②口 |②---|
口口口① |③---|
①①③③
17
②③④⑤ |①②③④|
⑥⑦⑧⑨ |⑤⑥⑦⑧|
①⑩⑪⑫ |⑨⑩⑪⑫|
∧口口口
18
④口④口 |①-②-|
口口口口 |③---|
①口口口 |④---|
③①③②
19
口①口∨ |①-②-|
⑤②⑤① |③-④-|
口③口口 |⑤---|
口④口口
20
①口①口 |①---|
口③④① |②---|
口③④口 |③-④-|
②口②口
21
④口口⑤ |①-②-|
口口口③ |③-④-|
②口口口 |⑤---|
口口口①
22
口口口口 |①---|
口②口③ |②-③-|
口口④口 |④-⑤-|
①①口⑤
23
②②①口 |①---|
口④①③ |②---|
①口口口 |③-④-|
∧口口口
24
口口口口 |①---|
③口②口 |②-③-|
①④口口 |④-⑤-|
⑤口①①
25
⑤④③② |①②③④|
⑨⑧⑦⑥ |⑤⑥⑦⑧|
⑫⑪⑩① |⑨⑩⑪⑫|
口口口∧
26
口④③口 |①---|
口口口口 |②---|
口口口① |③-④-|
①①②②
27
①口口口 |①--②|
③②③① |--③-|
口①口② |④---|
②④口④
28
口①①口 |①---|
口口口口 |----|
口口口口 |----|
口口口口
29
口口口口 |①---|
口口口口 |----|
口①①口 |----|
口口口口
30
口②口口 |①---|
①口③口 |②---|
①③口口 |③---|
口口口口
31
口口口① |①---|
口口口口 |----|
口口口口 |----|
口①口口
32
①口③口 |①---|
口②口口 |②---|
口口②口 |③---|
口③口①
33
口口口口 |①---|
②口口① |----|
①口口口 |②---|
口口口口
34
①口③口 |①---|
口②口口 |②---|
口①口口 |③---|
③口②口
35
口口口口 |①---|
②口口① |②---|
①③口口 |③---|
口口口口
36
②口口口 |①---|
口口口口 |②---|
口口口口
>━①口

口③口口
口口口口
口口口口 |③---|
口口③口
37
口口①口 |①---|
口口③口 |②---|
口②口口 |③---|
口口口口
38
口口口① |①---|
①②口┃ |②---|
①③口∧ |③---|
口口口口
39
口②口① |①---|
口口口口 |②---|
口口口③ |③---|
口①口口
40
口口①口 |①---|
①口┃口 |②---|
口②∧口 |③---|
口口③口
41
口口①口 |①---|
口口②口 |②---|
口口口① |③---|
口③口口
42
口①口口 |①---|
口┃口口
口∧口口
①口口口

口口口口
口口口口 |②---|
口②口口 |③---|
口口③口
43
口①口口 |①---|
口口口口 |②---|
口口②① |③---|
口③口口
44
口③①口 |①---|
口口口口 |②---|
①口④口 |③-④-|
口口②口
45
>━━① |①-②-|
①②③④ |③-④-|
口口口口
口口口口

口口口⑥
口口口口
⑤口口口 |⑤-⑥-|
口⑥口口
46
口②②口 |①---|
②口口口 |②---|
口③①口 |③---|
口口口口
47
口口口口 |①---|
口口口口 |②---|
口口③② |③---|
口口①口
48
②②①① |①---|
口口口口 |②---|
口②口口 |③---|
③①口口
49
口口②口 |①---|
③口口② |②---|
①④①口 |③-④-|
口口口口
50
②口口① |①---|
口②①口 |②---|
口口口口 |③---|
①②③口
51
口口口口 |①---|
口口口口 |②---|
口口③② |③---|
口口口①
52
>━━① |①---|
口口口口 |②---|
②①口口
口口口口

口口口④
口口口口
口口口口 |③-④-|
③口口口
53
口口①口 |①-②-|
口②口口
口口口口
口①━<

③⑤口口
④口⑥口 |③-④-|
口⑥口口 |⑤-⑥-|
口③⑤口
54
口口口① |①---|
口口口┃ |②---|
口口口∧
①口口口

口口口②
口口口口 |②---|
口口②口 |③---|
口③口口
55
∨口口口 |①---|
┃口口口
①口口口
口口口口

口口口口
口口②口 |②---|
②③口口 |③---|
口口口口
56
②②①① |①---|
口口口口 |②---|
口口②口 |③---|
口③①口
57
口口口口 |①---|
∨口口口
①口口口
口口口口

口口口口
③口口口 |②---|
②④口口 |③-④-|
口口口口
58
口>━① |①---|
口②口口 |②---|
口口③口 |③---|
口口①口
59
口口口① |①---|
口③口③ |②---|
口②口口 |③---|
③①口口
60
>━①口 |①---|
口口②口 |②-③-|
①③口口
口口口口

口口⑤口
口口口口
口口口口 |④-⑤-|
口口④口
61
口口口① |①---|
①口口∧
┃口口口
∧口口口

口口口③
②③③口 |②---|
口口口口 |③---|
口口口口
62
口①①口 |①---|
口口口口 |②-③-|
②③④口 |④---|
口①①口
63
①口口口 |①---|
①④③② |②-③-|
口口口口 |④---|
口口口口
64
②③④⑤ |①---|
口口口口 |②-③-|
口口口① |④-⑤-|
口口口①
65
口口口口 |①---|
④口②口 |②-③-|
口③口口 |④---|
口①①口
66
口①口口 |①---|
口②口④ |②-③-|
口口③① |④---|
口口口口
67
口口①① |①---|
口口③口 |②---|
口④口口 |③-④-|
②②口口
68
①口④口 |①---|
①③口口 |②-③-|
口口②口 |④---|
口口口口
69
∨口口∨ |①---|
┃口口┃ |----|
①口口① |----|
口口口口
70
口口口口 |①---|
②口④口 |②-③-|
①①①① |④---|
口③口口
71
口①①口 |①---|
口④口② |②-③-|
口口口口 |④---|
口口③口
72
①口口① |①---|
②口③口 |②-③-|
口①①口 |④-⑤-|
④口⑤口
73
②①①口 |①---|
口③口① |②-③-|
口口④① |④---|
口口口口
74
口口口① |①---|
②口④口 |②-③-|
口③口口 |④---|
①口口口
75
口①②口 |①---|
③口口口 |②---|
④口口口 |③-④-|
口①②口
76
①口口① |①---|
口口口④ |②-③-|
口口③口 |④---|
口②口口
77
③①①口 |①---|
⑦口⑥口 |②-③-|
②口口口 |④⑤⑥⑦|
⑤口④口
78
口口③口 |①---|
口②口① |②---|
口②③① |③---|
口②口①
79
口口口① |①---|
口③①③ |②---|
口口口② |③---|
口③②③
80
口④③② |①-②③|
⑦口⑤口 |④-⑤-|
④①①⑥ |⑥-⑦-|
⑥口口口
81
⑤口口口 |①-②-|
口④口① |③-④-|
⑤③③口 |⑤---|
口①②口
82
口口①口 |①-②-|
口⑥⑤④ |③-④⑤|
口⑥⑦③ |⑥-⑦-|
①③口②
83
口④③② |①-②③|
①口口⑥ |④-⑤-|
①口口口 |⑥-⑦-|
④⑥⑦⑤
84
①口口口 |①-②③|
②③④⑦ |④-⑤-|
口⑤①④ |⑥-⑦-|
⑥口口⑥
85
②③④⑥ |①-②③|
口口口口 |④-⑤-|
①⑦④⑥ |⑥-⑦-|
口⑤①口
86
⑥⑤⑦口 |①-②③|
②③④口 |④-⑤-|
口口⑥口 |⑥-⑦-|
①口④①
87
口口口口 |①---|
③口口③ |②-③-|
①口口① |④---|
②④④②
88
口④③② |①-②③|
⑦口⑤口 |④-⑤-|
④①①⑥ |⑥-⑦-|
⑥口口口
89
⑤口口口 |①-②-|
口④口① |③-④-|
⑤③③口 |⑤---|
口①②口
90
口口①口 |①-②-|
口⑥⑤④ |③-④⑤|
口⑥口③ |⑥-⑦-|
①③⑦②
91
口②③④ |①-②③|
①口口⑥ |④-⑤-|
①口口口 |⑥---|
④⑥口⑤
92
①口口口 |①-②③|
②③④⑦ |④-⑤-|
口⑤①④ |⑥-⑦-|
⑥口口⑥
93
②③④⑥ |①-②③|
口口口口 |④-⑤-|
①⑦④⑥ |⑥-⑦-|
口⑤①口
94
⑤③③⑤ |①---②-|
口②①口 |--③---|
口口④口 |④-⑤-|
①④口②
95
口⑦口口 |①---|
③口⑥② |②-③-|
①⑤口① |④⑤⑥⑦|
口口④口
96
口口①① |①---|
口口口口 |----|
口口口口 |----|
①①口口
97
①口口口 |①---|
①口口口 |----|
口口口① |----|
口口口①
98
①口口① |--①-|
④口口③ |-②--|
口①①口 |③-④-|
②③④②
99
⑤⑥⑦口 |①---|
口①①口 |②③④-|
口④③② |⑤⑥⑦-|
口口口口
100
口口口口 |①---|
口④③② |②-③-|
口口口口 |④---|
①②④①
101
②③④⑤ |①---|
口口口口 |②-③-|
①④②① |④-⑤-|
口口口口
102
口口口口 |①---|
①②④口 |②-③-|
口口口口 |④---|
②③④①
103
口⑤③口 |①-②-|
口口口① |③-④-|
⑥④②口 |⑤-⑥-|
口口口口
104
①⑪⑪① |①---|
⑤④③② |②③④⑤⑥⑦⑧⑨|
口口⑩⑩ |⑩-⑪-|
⑨⑧⑦⑥
105
口口口② |①---|
③口口③ |②---|
①①口口 |③---|
口口口口
106
②③④⑤ |①---|
口⑪⑪口 |②③④⑤⑥⑦⑧⑨|
⑥⑦⑧⑨ |⑩-⑪-|
⑩①①口
107
口③③口 |①---|
口口口口 |②---|
口口口口 |③---|
口②②①
108
口⑪⑩口 |①-②③|
⑨⑤②⑥ |④⑤⑥⑦|
①③④① |⑧⑨⑩⑪|
⑦口口⑧
109
⑤口口② |①-②③|
口⑨⑥⑩ |④⑤⑥⑦|
③⑦⑧④ |⑧⑨⑩⑪|
⑪①①口
110
⑩⑤③⑦ |①②③④|
②口口口 |⑤⑥⑦⑧|
⑧⑫⑪⑨ |⑨⑩⑪⑫|
口④⑥①
111
口口口口 |①---|
口①①口 |----|
口口口口 |----|
口口口口
112
口口②口 |①---|
口④口口 |②---|
①口口① |③-④-|
口③口口
113
口②口口 |①---|
①口口① |②---|
口口口口 |③---|
口口③口
114
口口②口 |①---|
口④口口 |②---|
①口口① |③-④-|
口③口口
115
口②口口 |①---|
①口口① |②---|
口口口口 |③---|
口口③口
116
②口口口 |①---|
口④口口 |②---|
①口口① |③-④-|
口③口口
117
口口口② |①---|
①口口① |②---|
口口口口 |③---|
口口③口
118
口口②口 |①---|
口④口口 |②---|
①口口① |③-④-|
口③口口
119
口②口口 |①---|
口口口口 |②---|
口口口口 |③---|
①口③①
120
口口口口 |①---|
①①①① |----|
∧∧∧∧ |----|
口口口口
121
口口口口 |----|
口口口口 |----|
口口口口 |----|
口口口口
122
口口口口 |----|
口口口口 |----|
口口口口 |----|
口口口口
123
口口口口 |----|
口口口口 |----|
口口口口 |----|
口口口口
124
口口口口 |①---|
①①①① |----|
口口口口 |----|
口口口口
最終更新:2019年11月21日 19:04