Last Dress
はるなば
ADVANCED
Level: 9.1
BPM: 160
Notes(
hold): 728(61)
 
1
口口口口 |----|
口口口口 |----|
口口口口 |----|
口口口口 |----|
2
①□□< |①---|
□□□□ |----|
□□□□ |----|
□□□□ |----|
3
①□□□ |①---|
□□① |----|
□□□□ |②---|
□□□□ |③---|
③□□□
□□□□
□□□□
②□□□
4
□□□④ |①--②|
□□③① |--③-|
①□□< |④---|
□□②□ |----|
5
①②□□ |①---|
□③□□ |----|
①□□□ |②---|
□□① |③---|
6
□□②□ |①---|
□□□□ |②---|
①□□< |----|
□□□① |----|
7
□②□□ |①---|
□□① |②---|
①□□□ |----|
□□□□ |----|
8
□□□□ |①---|
□∨□① |----|
□□□□ |②---|
□①□□ |----|
□□∨□
□□□□
□□②□
□②□□
9
①□□< |①---|
□□□□ |----|
□□①□ |----|
□□□□ |----|
10
①□□□ |①---|
□□□□ |----|
□□□□ |----|
□□□□ |----|
11
□□□□ |①---|
□□□□ |----|
□①□ |②---|
□□□□ |----|
□□□□
□②□<
□□②□
□□□□
12
②□<③ |①---|
∨①□□ |②---|
□□□∧ |③---|
④>□① |④---|
③□□④
□□□□
□□□□
□□□②
13
□□□□ |①---|
□□① |----|
②□□< |②---|
①□□□ |----|
□□□□
□□□②
□□□□
□□□□
14
□>①□ |①---|
□②<□ |②---|
①>③□ |③---|
□④<□ |④---|
□□②□
□③□□
□□④□
□□□□
15
□□∨∨ |①---|
□□□□ |----|
□□□□ |②---|
□①①① |----|
②②□□
□□□□
□□□□
∧∧②②
16
①①□□ |①---|
□②□< |②---|
□①□ |③---|
□□□□ |④---|
□∨□□
□□③□
□④□□
□□∧□
□□□□
□③④□
□□②□
□□□□
17
□□① |①---|
□□□□ |----|
□①□□ |②---|
□□□□ |----|
□□□②
□□□□
□□□□
②□□<
18
□□□□ |①-②③|
□□□□ |④---|
□□①□ |⑤⑥⑦⑧|
①□□□ |⑨⑩⑪⑫|
⑥②□⑤
⑧④③⑦
⑩□□⑨
⑫□□⑪
19
③⑤④③ |①---|
④②①□ |②---|
⑤①②□ |③--④|
□□□□ |--⑤-|
20
□□□□ |①-②-|
□③①□ |③-④-|
□①□② |⑤--⑥|
□□②④ |--⑦-|
⑤⑥⑦⑤
□□□⑥
□□□⑦
□□□□
21
⑨⑦⑧⑨ |①-②③|
⑧③②□ |④⑤⑥-|
⑦⑤④□ |⑦--⑧|
□①①⑥ |--⑨-|
22
□⑤⑥□ |①-②-|
⑤①②⑦ |③-④-|
③②①④ |⑤--⑥|
④⑥⑦③ |--⑦-|
23
③⑤④③ |①---|
④①②□ |②---|
⑤②①□ |③--④|
□□□□ |--⑤-|
24
⑤⑥⑦④ |①-②-|
⑤③④□ |③-④-|
⑥②③□ |⑤--⑥|
②⑦□① |--⑦-|
25
□□□□ |--①-|
□②□① |-②--|
□①□② |③--④|
□□□□ |--⑤-|
④□□③
□□□□
□⑤⑤□
③□□④
26
□③②□ |①-②-|
□□□④ |③-④-|
②□□③ |⑤--⑥|
④□①□ |--⑦-|
⑥□□⑥
⑤□□□
□□□□
□⑦⑦⑤
27
③⑤④③ |①---|
④②①□ |②---|
⑤①②□ |③--④|
□□□□ |--⑤-|
28
□□□□ |①-②-|
□③①□ |③-④-|
□①□② |⑤--⑥|
□□②④ |--⑦-|
⑤⑥⑦⑤
□□□⑥
□□□⑦
□□□□
29
⑨⑦⑧⑨ |①-②③|
⑧③②□ |④⑤⑥-|
⑦⑤④□ |⑦--⑧|
□①①⑥ |--⑨-|
30
□⑤⑥□ |①-②-|
⑤①②⑦ |③-④-|
③②①④ |⑤--⑥|
④⑥⑦③ |--⑦-|
31
③⑤④③ |①---|
④①②□ |②---|
⑤②①□ |③--④|
□□□□ |--⑤-|
32
⑤⑥⑦④ |①-②-|
⑤③④□ |③-④-|
⑥②③□ |⑤--⑥|
②⑦□① |--⑦-|
33
□□□□ |--①-|
□②□① |-②--|
□①□② |③--④|
□□□□ |--⑤-|
④□□③
□□□□
□⑤⑤□
③□□④
34
□③②□ |①-②-|
□□□④ |③-④-|
②□□③ |⑤⑥⑦⑧|
④□①□ |⑨⑩⑪⑫|
⑨□□⑫
□⑤⑥□
□⑦⑧□
□⑪⑩□
35
□①□□ |①---|
⑥⑦⑧□ |----|
②③④⑤ |②③④⑤⑥⑦|
□□□□ |⑧---|
36
□□∨□ |①---|
□□□□ |----|
□□□□ |----|
□□①□ |②---|
□□□□
□□□□
□□□□
□□②□
37
①□<□ |----|
□□□□ |----|
□□□□ |①---|
□□□□ |②---|
②□□□
□□□□
□>□②
□□□□
38
□□□□ |①---|
□∨□□ |--②-|
□□□① |----|
□①□□ |--③-|
□□□□
□□∨□
□□□□
□②②□
□□□□
□□□□
□□□□
□□③□
39
□□□□ |①---|
①><② |--②-|
□□□□ |----|
□□□□ |③---|
□③□□
②□□③
□□□□
□□□□
40
□□∨□ |①---|
□□□□ |②---|
□□□□ |③---|
□□①□ |④---|
④□<□
□②□□
□③□□
□□③□
41
①∨□□ |①---|
②>□① |②---|
□③□□ |③---|
□□□□ |④---|
□□□□
□□∨②
□④□□
□□④□
42
①□□< |①---|
□□□□ |②-③-|
□□□□ |----|
□□①□ |④---|
③□□□
□□②□
□□□□
□□③
□□□□
□□□□
□□□□
□□□④
43
□∨③□ |①---|
□□□② |②-③-|
□□□□ |----|
□①∧□ |④---|
□□④□
□□□□
□□□□
□③□□
44
□□□□ |①②③④|
①⑤⑥② |----|
③⑦⑧④ |⑤⑥⑦⑧|
□□□□ |----|
45
③□□④ |①②③④|
□⑤⑥□ |----|
□□□□ |⑤⑥-⑦|
①⑦□② |----|
46
⑧⑤□⑨ |①②③④|
④⑫⑬③ |⑤-⑥⑦|
②⑥⑦① |⑧⑨⑩⑪|
⑩⑭⑮⑪ |⑫⑬⑭⑮|
47
□①②□ |①--②|
①⑤⑤② |--③-|
③③④④ |-④--|
□⑤⑤□ |⑤---|
48
①□□② |①②③④|
③□□④ |----|
□⑤⑥□ |⑤⑥⑦⑧|
□⑦⑧□ |----|
49
⑤①②⑥ |①②③④|
⑪③④⑫ |⑤⑥⑦⑧|
□⑨⑩□ |⑨⑩⑪⑫|
⑦□□⑧ |----|
50
⑦⑮⑯⑧ |①②③④|
⑪③④⑫ |⑤⑥⑦⑧|
⑤⑬⑭⑥ |⑨⑩⑪⑫|
⑨①②⑩ |⑬⑭⑮⑯|
51
③□□③ |①--②|
⑤①②⑤ |--③-|
□⑤⑤□ |-④--|
④①②④ |⑤---|
52
③①②③ |①---|
□②①□ |②---|
④□□④ |③--④|
□⑤⑤□ |--⑤-|
53
④④□□ |--①-|
⑥⑥③□ |②-③-|
□②⑤⑤ |④--⑤|
①□□□ |--⑥-|
54
□□①② |--①-|
□⑤②① |-②--|
③④⑤□ |③--④|
④③□□ |--⑤-|
55
①②③□ |--①-|
□□□□ |②-③-|
⑤⑥⑥④ |④--⑤|
□⑤④□ |--⑥-|
56
③①②③ |①---|
□②①□ |②---|
④□□④ |③--④|
□⑤⑤□ |--⑤-|
57
④④□□ |--①-|
⑥⑥③□ |②-③-|
□②⑤⑤ |④--⑤|
①□□□ |--⑥-|
58
□□①② |--①-|
□□②① |-②--|
③④□⑤ |③--④|
④③⑤□ |--⑤-|
59
⑥②□⑤ |①-②③|
⑧④③⑦ |④---|
⑩□①⑨ |⑤⑥⑦⑧|
⑫□□⑪ |⑨⑩⑪⑫|
60
③②①③ |①---|
⑧②①⑨ |②---|
□④⑤□ |③-④⑤|
⑥□□⑦ |⑥⑦⑧⑨|
61
⑧③②⑦ |①-②-|
□□④□ |③-④-|
□⑤⑥□ |⑤-⑥-|
□①①□ |⑦-⑧-|
62
⑯⑮⑭⑬ |①②③④|
⑧⑦⑥⑤ |⑤⑥⑦⑧|
⑫⑪⑩⑨ |⑨⑩⑪⑫|
④③②① |⑬⑭⑮⑯|
63
⑯⑮⑭⑬ |①②③④|
⑫⑪⑩⑨ |⑤⑥⑦⑧|
⑧⑦⑥⑤ |⑨⑩⑪⑫|
④③②① |⑬⑭⑮⑯|
64
⑧⑧⑦⑦ |①-②-|
⑥⑥⑤⑤ |③-④-|
④②③① |⑤-⑥-|
④②③① |⑦-⑧-|
65
⑥⑧⑦⑤ |①-②-|
□□□□ |③-④-|
④③②① |⑤-⑥-|
③④①② |⑦-⑧-|
66
⑫⑪⑩⑨ |①②③④|
④③②① |⑤⑥⑦⑧|
⑧⑦⑥⑤ |⑨⑩⑪⑫|
⑯⑮⑭⑬ |⑬⑭⑮⑯|
67
⑫⑪⑩⑨ |①②③④|
④③②① |⑤⑥⑦⑧|
⑧⑦⑥⑤ |⑨⑩⑪⑫|
⑯⑮⑭⑬ |⑬⑭⑮⑯|
68
⑫⑪⑩⑨ |①②③④|
④⑦⑥① |⑤⑥⑦⑧|
⑧③②⑤ |⑨⑩⑪⑫|
⑯⑮⑭⑬ |⑬⑭⑮⑯|
69
⑫⑪⑩⑨ |①②③④|
④⑦⑥① |⑤⑥⑦⑧|
⑧③②⑤ |⑨⑩⑪⑫|
⑯⑮⑭⑬ |⑬⑭⑮⑯|
70
⑯⑦⑥⑬ |①②③④|
⑧⑮⑭⑤ |⑤⑥⑦⑧|
④③②① |⑨⑩⑪⑫|
⑫⑪⑩⑨ |⑬⑭⑮⑯|
71
⑯⑦⑥⑬ |①②③④|
⑧⑮⑭⑤ |⑤⑥⑦⑧|
④③②① |⑨⑩⑪⑫|
⑫⑪⑩⑨ |⑬⑭⑮⑯|
72
⑫③②⑨ |①②③④|
④⑪⑩① |⑤⑥⑦⑧|
⑧⑮⑭⑤ |⑨⑩⑪⑫|
⑯⑦⑥⑬ |⑬⑭⑮⑯|
73
⑫③②⑨ |①②③④|
④⑪⑩① |⑤⑥⑦⑧|
⑧⑮⑭⑤ |⑨⑩⑪⑫|
⑯⑦⑥⑬ |⑬⑭⑮⑯|
74
□□□□ |①---|
□□① |----|
□□□□ |②---|
□□□□ |----|
②□□<
□□□②
□□□□
□□□□
75
①④<□ |①---|
□>③□ |②---|
□②<□ |③---|
□>①□ |④---|
□□□□
□□④□
□③□□
□□②□
76
□①□① |①---|
□□□□ |----|
□□□□ |②---|
□□□∧ |----|
②□□②
□□□□
□□□□
∧□□□
77
①>①□ |①---|
□②<□ |②---|
□>③□ |③---|
□④<□ |④---|
□□②□
□③□□
□□④□
□□□□
78
□□□□ |①---|
①□□< |----|
□□① |----|
□①□□ |----|
79
口口口口 |----|
口口口口 |----|
口口口口 |----|
口口口口 |----|
80
口口口口 |①---|
①口口口 |----|
口口口① |----|
口口口口 |----|
最終更新:2021年06月21日 03:39