アットウィキロゴ
Last Dress
はるなば

EXTREME

Level: 10.7
BPM: 160
Notes(hold): 891(135)

1
口口口口|----|
口口口口|----|
口口口口|----|
口口口口|----|
2
①口口<|①---|
①口口<|----|
口口口口|----|
口口口口|----|
3
①口口口|①---|
①口口口|----|
口口①|②-③-|
口口①|④-⑤-|

口口④口
口③口口
口⑤口口
②口口口
4
①口口<|①---②-|
①口口<|--③---|
口口③①|④---|
口②口①|----|

口口口④
口口口口
口口口口
口口口口
5
①口口口|①---|
①口口口|----|
口口①|②-③-|
口口①|④-⑤-|

口②口口
口口③口
口④口口
口口⑤口
6
①口口<|①-②-|
①口口<|③-④-|
口口③①|--⑤-|
口②口①|----|

口口口口
口口⑤④
口口口口
口口⑤口
7
①口口口|①-②-|
①口口口|③-④-|
口口①|--⑤-|
口口①|----|

口口④口
口③口口
口口②口
⑤⑤口口
8
①口<口|①---|
①口<口|----|
口口口①|②---|
口口口①|----|

②>口②
②>口②
口口口口
口口口口
9
口口口①|①---|
口口口①|----|
①口口<|②---③-|
①口口<|--④---|

口口③口
口④口口
口口口口
口口口②
10
口口口口|①---|
口口口口|----|
①口①口|----|
①口口口|----|
11
口口口口|①--②|
∨②口口|--③-|
口③口口|④--⑤|
①口①①|--⑥-|

④口口口
口口口口
∧口④④
②口口口

⑤⑤口口
口口口口
⑥口口口
口口口口
12
口口口口|①--②|
口①①①|--③-|
口口口口|④--⑤|
②∧口口|⑥-⑦-|

口口口口
口②口口
口口口口
口③口口

口④④④
⑦口口口
⑤∧⑥口
口口口口

口⑤口口
口口口口
口口口口
口口口口
13
口口口口|①--②|
∨②口口|--③-|
口③口口|④--⑤|
①口①①|--⑥-|

④口口口
口口④④
∧口口口
②口口口

⑤⑤口口
口口口口
⑥口口口
口口口口
14
口口口①|①--②|
口①口口|③-④-|
口口③口|⑤--⑥|
②∧口口|⑦-⑧-|

口⑤⑦口
⑧口口口
⑥∧口口
口④口⑤

口⑥口口
口②口口
口口口口
口口口口
15
口口口口|①--②|
∨②>①|--③-|
口③口口|④--⑤|
①口口口|--⑥-|

④⑤④<
口口口④
∧口口口
②口口口

⑤口口口
口口口口
⑥口口口
口口口口
16
口口①口|①--②|
口①口口|③-④-|
口口>①|⑤--⑥|
②∧口口|⑦-⑧-|

口⑤>③
⑧口⑤<
⑥∧口口
口④>⑦

口⑥口⑤
口②⑦口
口口口③
口口口口
17
口口口口|①--②|
∨②>①|--③-|
口③口口|④--⑤|
①口口①|--⑥-|

④⑤④<
口口口④
∧口口口
②口口口

⑤口口口
口口口口
⑥口口口
口口口口
18
⑦口①⑧|①-②③|
⑨②③⑩|④---|
⑪⑤⑥⑫|⑤⑥⑦⑧|
④④①口|⑨⑩⑪⑫|
19
口①①口|①---|
口口口口|②---|
口口口口|③--④|
口∧口口|--⑤-|

⑤③口口
口④口口
口③口口
口②②口

口口口口
口口口口
口口口口
口口③
20
口口③|①-②-|
①口口<|③-④-|
口④②口|⑤--⑥|
口③①①|⑦-⑧-|

口口口⑤
③口⑤口
⑤口口<
口口口口

口口口口
口⑧口口
⑦口口⑥
口口⑦
21
口①①口|①-②③|
③口口②|④⑤⑥-|
口口④口|⑦--⑧|
口∧口①|--⑨-|

口口口口
口口⑥口
口⑤口口
口口口口

口⑦V口
口⑨口口
⑧口口口
口⑦⑦口
22
①口口<|①-②-|
口口口口|③-④-|
口口口口|⑤--⑥|
口口①口|⑦-⑧-|

③口口②
③口口口
口口③
口口口口

口口口口
口口⑦
口④⑥⑤
⑤口口<

口口口口
口⑧口口
口口口口
⑦口口口
23
口①①口|①---|
口口口①|②---|
口口口口|③--④|
口∧口口|--⑤-|

⑤③口口
口④口口
口③口口
口②②口

口口口口
口口口口
口口口口
口口③
24
口口③|①-②-|
①口口<|③-④-|
口④②口|⑤--⑥|
口③①①|⑦-⑧-|

口口口⑤
③口⑤口
⑤口口<
口口口口

口口口口
口⑧口口
⑦口口⑥
口口⑦
25
口①①③|①-②-|
口口③②|-③--|
口口②口|④--⑤|
口∧口①|--⑥-|

口④∨口
口⑥口口
⑤口口口
④口④口
26
①口口<|①-②-|
□□□□|③-④-|
□□□□|⑤--⑥|
□□①□|--⑦-|

③口口②
③口口口
口口③
口口口口

口口口口
口⑥口⑦
⑦④⑥⑤
⑤口口<
27
口①①口|①---|
口口口口|②---|
口口口口|③--④|
①∧口口|--⑤-|

⑤③口口
口④口口
口③口口
口②②口

口口口口
口口口口
口口口口
口口③
28
口口③|①-②-|
①口口<|③-④-|
口④②口|⑤--⑥|
口③①①|⑦-⑧-|

口口口⑤
③口⑤口
⑤口口<
口口口口

口口口口
口⑧口口
⑦口口⑥
口口⑦
29
口①①口|①-②③|
③口口②|④⑤⑥-|
口口④口|⑦--⑧|
口∧口①|--⑨-|

口口口口
口口⑥口
口⑤口口
口口口口

口⑦V口
口⑨口口
⑧口口口
口⑦⑦口
30
①口口<|①-②-|
口口口口|③-④-|
口口口口|⑤--⑥|
口口①口|⑦-⑧-|

③口口②
③口口口
口口③
口口口口

口口口口
口口⑦
口④⑥⑤
⑤口口<

口口口口
口⑧口口
口口口口
⑦口口口
31
口①①口|①---|
口口口①|②---|
口口口口|③--④|
口∧口口|--⑤-|

⑤③口口
口④口口
口③口口
口②②口

口口口口
口口口口
口口口口
口口③
32
口口③|①-②-|
①口口<|③-④-|
口④②口|⑤--⑥|
口③①①|⑦-⑧-|

口口口⑤
③口⑤口
⑤口口<
口口口口

口口口口
口⑧口口
⑦口口⑥
口口⑦
33
口①①③|①-②-|
口口③②|-③--|
口口②口|④--⑤|
口∧口①|--⑥-|

口④V口
口⑥口口
⑤口口口
④口④口
34
②口⑤口|①-②-|
口⑧口①|③-④-|
⑥④⑦口|⑤⑥⑦⑧|
口口①③|⑨⑩⑪⑫|

口口口口
⑫口口⑨
口口口口
⑩口⑪口
35
口②③口|①---|
口④⑤口|----|
口⑥⑦①|②③④⑤⑥⑦|
口⑧口口|⑧---|
36
①口口<|①---|
口口口口|----|
口口口口|----|
口口口口|----|
37
①>②口|①---|
口③<口|----|
口口口口|②---|
口口口口|③---|

口口③口
口口口口
口口口口
口口口口
38
口口口口|①---|
口①口口|--②-|
口②口<|----|
口①口|③---|

口口口口
口口口口
口③口口
口口②口
39
口③口口|①---|
口②口|--②-|
口口口口|----|
口①口<|③---|

口口口口
口口③口
口口口口
口②口口
40
口口口口|①--②|
口①口口|----|
口口①|③---|
口②口口|④-⑤-|

④口<口
口口口口
口③⑤③
口口口口
41
①>④口|①--②|
②>口①|③---|
口④口口|④---|
口口口口|⑤-⑥-|

口口⑤口
口⑤<③
口口口⑥
口口口口
42
口口口口|①--②|
口①④口|--③④|
②③口<|--⑤-|
口①⑤|⑥-⑦-|

口口口口
口口口口
口⑥⑦口
口口③口
43
口口口①|①--②|
口②口口|--③-|
口口口口|-④--|
口①口<|⑤-⑥⑦|

口⑤⑤口
口③口
口④口③
④③口口

口口口口
口口⑤⑦
⑥口口口
口口口口
44
①⑧口②|①②③④|
口③⑨口|-⑤⑥⑦|
⑩⑥④⑦|⑧⑨⑩⑪|
口口⑤⑪|-⑫⑬⑭|

⑬口口⑫
口口口⑭
口口口口
口口口口
45
口⑥⑩⑫|①②③④|
①口⑤⑩|-⑤⑥⑦|
⑪③②⑦|⑧⑨-⑩|
⑧⑨④口|-⑪⑫⑬|

口口口口
⑬口口口
口口口口
口口口口
46
③④⑦⑪|①②③④|
口⑬⑮⑩|⑤-⑥⑦|
⑨⑫⑭⑤|⑧⑨⑩⑪|
⑧⑥②①|⑫⑬⑭⑮|
47
①口②④|①--②|
③口口口|--③-|
口口口③|-④--|
④②口①|⑤---|

⑤口口口
口⑤⑤口
口⑤⑤口
口口口⑤
48
⑪④①⑧|①②③④|
④⑪⑧①|-⑤⑥⑦|
⑦⑨⑩⑥|⑧⑨⑩⑪|
⑤②③口|-⑫⑬⑭|

口⑭口口
口口口口
口口口口
口⑫⑬口
49
⑩口①⑨|①②③④|
②⑧⑦①|⑤⑥⑦⑧|
④⑥⑨⑤|⑨⑩⑪⑫|
④⑫⑪③|-⑬⑭⑮|

口⑮⑭口
⑬口口口
口口口口
口口口口
50
⑫口口⑩|①②③④|
⑪⑧⑥⑨|⑤⑥⑦⑧|
④⑦⑤②|⑨⑩⑪⑫|
③口口①|⑬⑭⑮⑯|

口口口口
口口口口
⑯口口⑭
⑮口口⑬
51
④②①④|①--②|
④③③④|--③-|
口⑤⑤口|-④--|
⑤①②⑤|⑤---|
52
口∨①③|①---|
∨③②口|②---|
①口④①|③--④|
口口②⑤|--⑤-|

口口口口
口口口口
③口口口
口口口口
53
①③口⑤|①-②-|
∧∧口②|③-④-|
口口⑥④|⑤--⑥|
口口③⑧|⑦-⑧-|

口口口口
口①口口
口口口口
口口口口

③⑤口口
V⑦口口
⑤∧口口
口口口口

口口口口
口口口口
⑦口口口
口口口口
54
口口②④|①-②-|
∨①口③|-③--|
④∨⑤②|④--⑤|
口①③⑥|--⑥-|

口口口口
口口口口
口口口口
口④口口
55
口∨口⑤|①-②-|
口①②口|③-④-|
①口⑥③|⑤--⑥|
口口④⑧|⑦-⑧-|

⑦<口口
口③口口
∨⑤口口
③∧口口

口口口口
口口口口
口⑦口口
⑤口口口
56
①∨①③|①---|
∨③②口|②---|
①口④①|③--④|
口口②⑤|--⑤-|

口口口口
口口口口
③口口口
口口口口
57
①③口⑤|①-②-|
∧∧口②|③-④-|
口口⑥④|⑤--⑥|
口口③⑧|⑦-⑧-|

口口口口
口①口口
口口口口
口口口口

③⑤口口
V⑦口口
⑤∧口口
口口口口

口口口口
口口口口
⑦口口口
口口口口
58
口口②④|①-②-|
∨①③③|-③--|
④∨⑤②|④--⑤|
口①口⑥|--⑥-|

口口口口
口口口口
口口口口
口④口口
59
⑦口口⑧|①-②③|
⑨②③⑩|④---|
①⑤⑥口|⑤⑥⑦⑧|
④④①口|⑨⑩⑪⑫|

口口口口
口口口口
⑪口口⑫
口口口口
60
口①①口|①---|
口口口口|②---|
口口口口|③-④⑤|
口口∧口|⑥⑦⑧⑨|

口V②口
口口口口
口口口口
口②②口

④口口⑤
⑥③口⑦
口⑧⑨口
口③口③
61
口①③⑦|①-②③|
口⑤口口|-④⑤-|
①口⑧②|⑥-⑦⑧|
④⑥⑥口|-⑨⑩⑪|

⑨口口口
口口口⑩
⑪口口口
口口口口
62
⑭①⑫⑧|①②③④|
⑦⑩②口|⑤⑥⑦⑧|
⑬③⑪⑥|⑨⑩⑪⑫|
⑤⑨口④|⑬⑭⑮⑯|

口口口口
口口⑯口
口口口口
口口⑮口
63
⑬①⑫⑧|①②③④|
⑥⑩⑮②|⑤⑥⑦⑧|
⑭③⑪⑦|⑨⑩⑪⑫|
⑤⑨⑯④|⑬⑭⑮⑯|
64
⑥①⑥⑤|①-②③|
口口口①|-④-⑤|
⑦③⑦⑤|-⑥-⑦|
②④口④|-⑧-⑨|

口⑧口口
⑧口口口
口口口口
口口⑨口
65
⑤⑦⑤⑦|①-②③|
⑧③口①|-④-⑤|
口⑥口⑥|-⑥-⑦|
②④口④|-⑧⑨⑩|

口口口口
口⑩口⑨
口口口口
口口口口
66
⑧⑫⑤⑩|①②③④|
口口口口|⑤⑥⑦⑧|
⑥⑪③⑨|⑨⑩⑪⑫|
②④①⑦|⑬⑭⑮⑯|

口口口口
⑯口⑭口
口口口口
⑮口⑬口
67
⑧⑪⑤⑨|①②③④|
⑮④⑬①|⑤⑥⑦⑧|
⑥⑫③⑩|⑨⑩⑪⑫|
⑯②⑭⑦|⑬⑭⑮⑯|
68
⑥⑧①⑤|①②③④|
口②口口|⑤⑥⑦⑧|
④口③⑦|⑨⑩⑪⑫|
口口口口|⑬⑭⑮⑯|

口口口口
⑯⑭⑫⑩
口口口口
⑮⑬⑪⑨
69
⑧④⑦③|①②③④|
⑮⑬⑪⑨|⑤⑥⑦⑧|
②⑥①⑤|⑨⑩⑪⑫|
⑯⑭⑫⑩|⑬⑭⑮⑯|
70
④②⑫⑩|①②③④|
口口⑦⑤|⑤⑥⑦⑧|
⑧⑥①③|⑨⑩⑪⑫|
口口⑪⑨|⑬⑭⑮⑯|

⑯⑭口口
口口口口
口口口口
⑮⑬口口
71
⑮⑬⑪⑨|①②③④|
②⑥⑤①|⑤⑥⑦⑧|
⑧④⑦③|⑨⑩⑪⑫|
⑯⑭⑫⑩|⑬⑭⑮⑯|
72
⑯⑫⑭⑩|①②③④|
④⑧①⑤|⑤⑥⑦⑧|
⑥②⑦③|⑨⑩⑪⑫|
⑮⑪⑬⑨|⑬⑭⑮⑯|
73
⑮⑪⑬⑨|①②③④|
④⑧⑤①|⑤⑥⑦⑧|
②⑥⑦③|⑨⑩⑪⑫|
⑯⑫⑭⑩|⑬⑭⑮⑯|
74
口口口口|①---|
口>口①|----|
口②口|②---|
口口口口|----|

口口口口
口口口②
口口口口
口口口口
75
∨口口口|①---|
口∨口∨|②---|
④口①口|③---|
口①口③|④---|

口口口口
口口②口
口口口口
口②∧口

口口口口
口口③口
口口口口
口口口④
76
口口口①|①---|
口口口口|----|
①口口∧|②---|
口口口口|----|

口口口②
V口口口
口口口口
②口口口
77
口口∨口|①---|
④①口|②---|
口②③<|③---|
①∧口口|④---|

口口口口
口口②口
口③④口
口口口口
78
①口口①|①---|
口①口口|----|
口口口口|----|
∧口口∧|----|
79
口口口口|----|
口口口口|----|
口口口口|----|
口口口口|----|
80
①口口①|①---|
口口口口|----|
口口口口|----|
口口口口|----|
最終更新:2019年11月04日 15:40