アットウィキロゴ
Never See You Again
BEMANI Sound Team "U1 overground"

EXTREME

Level: 10.6
BPM: 160
Notes(hold): 906(23)

1
口口口口 |----|
口口口口 |----|
口口口口 |----|
口口口口 |----|
2
口口口① |①---|
口④口口 |----|
口口③口 |--②-|
口②口口 |③-④-|
3
口⑥①口 |①-②-|
③口口⑤ |③-④-|
口口口口 |⑤---|
④口②口 |⑥---|
4
⑧口口⑨ |①②③④|
⑦⑥④口 |⑤⑥⑦⑧|
口⑤③② |⑨---|
口口口① |----|
5
⑧④②⑥ |①②--|
口口口口 |③④--|
口口口口 |⑤⑥--|
③⑦⑤① |⑦⑧--|
6
⑦口口口 |①-②-|
口①⑥口 |-③④-|
口口③口 |--⑤⑥|
⑧⑤④② |⑦-⑧-|
7
口口③① |①-②-|
口⑤口口 |③-④-|
⑦口口口 |⑤-⑥-|
⑧⑥④② |⑦-⑧-|
8
口口口口 |①-②-|
口口⑥① |-③④-|
口口③口 |--⑤⑥|
⑦⑤④② |--⑦-|
9
口口口口 |--①-|
口⑥口口 |-②③-|
口口②口 |--④-|
⑤④③① |--⑤⑥|
10
⑤⑤①④ |①-②-|
③⑧①口 |③④--|
②③⑥① |⑤--⑥|
口⑦口口 |⑦-⑧-|
11
口②①口 |①---|
口⑥⑤口 |②---|
⑥⑤④③ |③-④-|
②④③① |⑤-⑥-|
12
④口①⑤ |①-②-|
①⑥⑤口 |③④--|
口⑧⑦③ |⑤--⑥|
①口③② |⑦-⑧-|
13
④②①③ |①---|
④④③③ |②---|
口口口口 |③---|
②④③① |④---|
14
⑥⑦⑧口 |①-②-|
口⑪⑩⑨ |③④⑤-|
④口③② |⑥-⑦-⑧-|
口口⑤① |⑨-⑩-⑪-|
15
口口口口 |①-②-|
口口口口 |③④⑤-|
②③口④
①⑤口口

⑥⑥⑧口
口⑧口⑧
⑨口⑧口 |⑥-⑦-|
⑩口⑦⑦ |⑧-⑨⑩|
16
口⑧口① |①②③④|
⑥口②口 |⑤⑥⑦⑧|
口③口④
口⑤口⑦

口口口口
口⑨口⑩
⑫⑭⑪口 |⑨⑩⑪⑫|
⑬口口口 |⑬-⑭-|
17
③③①① |①-②-③-|
⑦⑦⑤⑤ |④-⑤-⑥-|
⑧⑨⑨口 |⑦-⑧-⑨-|
⑩④②⑥ |⑩---|
18
①━━< |①---|
口口口口 |----|
口口口口
口①<口

②口④口
口口③⑤
口口②⑥ |②-③-④-|
口②口⑦ |⑤-⑥-⑦-|
19
⑨①⑨① |①②③④|
④⑤⑥口 |⑤⑥⑦⑧|
③⑨⑦口 |⑨---|
②口⑧口

口⑪口⑩
口口口口
口口口口
口⑬口⑫ |⑩⑪⑫⑬|
20
④⑥⑤⑤ |①-②-|
③口⑧⑤ |③-④-|
②口⑦口 |⑤-⑥-|
①口⑤口 |⑦-⑧-|
21
③⑨⑧④ |①-②-|
③⑤⑧④ |③-④-|
①口⑥② |⑤-⑥-⑦-|
①⑦口② |⑧-⑨-|
22
②⑪⑩② |①---|
③⑫⑨口 |②③④⑤|
④⑬⑧① |⑥⑦⑧⑨|
⑤⑥⑦① |⑩⑪⑫⑬|
23
⑤⑨⑧④ |①②③④|
口⑩口③ |⑤-⑥-|
口⑪口② |⑦-⑧-|
⑥⑫⑦① |⑨⑩⑪⑫|
24
⑤⑭⑭④ |①②③④|
⑥⑫⑨③ |⑤⑥⑦⑧|
⑦⑪⑩② |⑨⑩⑪⑫|
⑧口⑬① |⑬-⑭-|
25
②口口口 |①-②-|
④口口① |③-④-|
③口口①
口口口①

⑦⑦⑥⑥
口⑦⑥口
口口口口 |⑤-⑥-|
口⑤⑤口 |--⑦-|
26
口⑨⑨口 |①-②③|
④口⑥口 |④⑤⑥⑦|
①⑤③⑦ |⑧-⑨-|
①⑧⑧②

⑩口口口
口口口⑪
⑩口口口
口口口⑪ |⑩-⑪-|
27
⑨⑦⑥① |①-②③|
①②⑤口 |④⑤⑥⑦|
口③④⑧ |⑧-⑨-|
⑨口口口

口口口⑩
口口口口
⑪口口口
口口⑪口 |⑩⑪--|
28
⑦⑤⑨口 |①②③-|
口①口口 |④-⑤-|
口②⑥⑧ |⑥-⑦-|
⑦③⑨④ |⑧-⑨-|
29
⑨④口② |①-②-|
⑤④③② |③-④-|
口⑥③口 |⑤-⑥-⑦-|
⑦①口⑧ |⑧-⑨-|
30
口⑧⑦① |①②③-|
⑫⑨⑥⑬ |④⑤⑥⑦|
②⑩⑤③ |⑧⑨⑩⑪|
口⑪④口 |⑫-⑬-|
31
⑤⑧⑤⑨ |①②③④|
口口⑦口 |⑤-⑥-|
口⑥④③ |--⑦⑧|
⑥口①② |⑨---|
32
口口口口 |①②③④|
⑤⑥⑦⑧ |⑤⑥⑦⑧|
口口口口
④③②①

⑬口⑬口
口口口口
⑫⑪⑩⑨ |⑨⑩⑪⑫|
口⑭口⑭ |⑬-⑭-|
33
口口口① |①-②-|
口③口口 |③-④-|
口④口口
②口①口

⑥⑦⑧⑧
⑤口⑥口
口口口口 |⑤-⑥⑦|
口口口口 |--⑧-|
34
口口口口 |①-②-|
④口口① |③④--|
口口①口
②③③①

口⑤口口
口⑥⑦口
⑤口⑧口 |⑤-⑥-|
口口口⑦ |⑦-⑧-|
35
①⑤⑤① |--①-|
口口口口 |②③--|
②口⑦③ |④-⑤⑥|
⑥②口④ |⑦---|
36
②口口① |①---|
②②①① |②---|
口口口口
口②①口

口⑦⑧⑨
口口口口
③④⑤⑥ |③④⑤⑥⑦⑧|
⑩口口口 |⑨-⑩-|
37
⑤口口⑧ |①-②-|
①⑥⑨③ |③-④-|
⑦口口⑩ |⑤-⑥-⑦-|
口②④口 |⑧-⑨-⑩-|
38
口口口口 |①-②-|
④口口① |③④--|
口口①口
②③③①

口⑤口口
口⑥⑦口
⑤口⑧口 |⑤-⑥-|
口口口⑦ |⑦-⑧-|
39
①⑤⑤① |--①-|
口口口口 |②③--|
②口⑦③ |④-⑤⑥|
⑥②口④ |⑦---|
40
口⑦⑧⑨ |①---|
①①②② |②---|
③④⑤⑥ |③④⑤⑥⑦⑧|
⑩①②口 |⑨-⑩-|
41
⑤口口⑧ |①-②-|
①⑥⑨③ |③-④-|
⑦口口⑩ |⑤-⑥-⑦-|
口②④口 |⑧-⑨-⑩-|
42
口③④④ |①-②-|
⑥⑥口⑤ |③---|
⑦口②口 |④-⑤-|
口①口口 |⑥-⑦-|
43
②口②口 |----|
口口①口 |①---|
口①④① |②-③-|
③口①口 |④---|
44
②③口① |①---|
②②①① |②---|
口⑥⑤④ |③---|
口②①口 |④⑤⑥-|
45
①⑦⑥⑦ |①②③④⑤---|
②口⑨口 |⑥---|
③口口口 |⑦--⑧|
④⑧⑧⑤ |--⑨-|
46
①口口口 |①---|
①①口③ |②-③-|
②口③③
口口口口

口④口④
⑥口⑥口
口口口口 |④-⑤-|
口⑤⑦口 |⑥-⑦-|
47
口⑤①口 |①-②-|
口④口口 |③-④-⑤-|
口③口口 |⑥-⑦-⑧-|
②口口口 |⑨-⑩-⑪-|

⑧口⑪口 |①-②-|
⑦口⑩口 |③-④-⑤-|
⑥口⑨口 |⑥-⑦-⑧-|
口口口口 |⑨-⑩-⑪-|
48
⑤④⑥⑤ |①-②-|
④③⑦⑥ |③-④-|
③②⑧⑦ |⑤-⑥-|
②①①⑧ |⑦-⑧-|
49
口口口口 |①-②-|
③②口口 |③---|
②③口口
口①①口

口④④口
口⑥⑥④
口口⑤口 |④--⑤|
⑤⑥⑥⑤ |--⑥-|
50
①━<口 |①---|
口口口口 |----|
①━<口 |----|
口口口口 |----|
51
①口口口 |①---|
口>━① |----|
①口口口 |----|
口>━① |----|
52
口①━< |①---|
口口口① |----|
口①━< |----|
口口口① |----|
53
口①口口 |①---|
>━①口 |----|
口①口口 |----|
>━①口 |----|
54
①②③④ |①---|
口口①口 |②---|
>①口口 |③---|
口口①口 |④---|
55
口口口口 |①---|
口口口①
口①①<
口口口口

口口口口
口口口口 |②---|
口口口② |③---|
口口④③ |④---|
56
口口口口 |①---|
>①口口
③口①口
②①口口

口口口口
④口口口 |②---|
口口口口 |③---|
口口口口 |④---|
57
①②③④ |①---|
口①①< |②---|
口口口口 |③---|
口口口口 |④---|
58
③④⑤口 |①-②-|
⑥口①⑤ |③④--|
⑦口⑤② |⑤--⑥|
①口口口 |⑦---|
59
口口口① |①---|
口①①口 |②---|
口②②口 |----|
②口口口 |----|
60
③④⑤口 |①-②-|
⑥口口⑤ |③④--|
⑦口⑤② |⑤--⑥|
①口口口 |⑦---|
61
口④④① |①---|
③①①③ |②---|
③②②③ |③---|
②④④口 |④---|
62
⑤口⑦⑥ |①-②-|
口③口④ |③④--|
⑤口②口 |⑤--⑥|
口口口① |⑦---|
63
口口口口 |①-②-|
④口③口 |③④--|
口②口口
①口口口

⑤⑤⑦口
口⑦口⑦
⑧口⑦口 |⑤-⑥-|
⑨口⑥⑥ |⑦-⑧⑨|
64
⑤③口④ |①-②-|
⑤口②⑥ |③④--|
口口⑦① |⑤--⑥|
口口口口 |⑦---|
65
口①①口 |①---②-|
③口口④ |--③---|
③口口④ |④---|
口②②口 |----|
66
口口⑤① |①-②-③-|
口⑤③口 |④-⑤-⑥-|
口③⑥口
①口②④

⑪⑨口⑪
⑦口口⑦
⑩⑫口⑨ |⑦-⑧-⑨-|
口⑧口口 |⑩-⑪-⑫-|
67
口口口口 |①---②-|
口口∨口 |--③---|
口口┃口
口口①口

口口口口
口②━<
口口口口
口口②口

口口口口
口③口③
口口口┃
口口口∧

口④━<
口口口④
口口口口 |④---⑤-|
口口口口 |--⑥---|

口⑤口口
口口口口
口口口口
口>━⑤

口口口口
口口口口
口口口口
⑥━<⑥
68
⑤⑨⑦⑥ |①-②-③-|
⑦③④⑤ |④-⑤-⑥-|
①口①③ |⑦-⑧-⑨-|
①⑧②⑨

口口口口
口⑭⑮口
⑩⑪⑫⑬
口口口口 |⑩⑪⑫⑬⑭⑮|
69
③⑥⑤③ |①-②-③-|
④口口② |④-⑤-⑥-|
⑦━<口 |⑦---⑧-|
①⑤①口 |--⑨---|

口口口口
口口口∨
⑧口口┃
口口口⑧

口∨口口
口┃口口
口⑨口口
口口口⑨
70
①⑤口⑤ |①-②-③-|
口口③① |④-⑤-⑥-|
口①⑥④
③口②口

⑪口⑦口
⑦⑨口⑪
⑩⑫口口 |⑦-⑧-⑨-|
口⑧口⑨ |⑩-⑪-⑫-|
71
口③⑥③ |①-②-③-|
⑤口①口 |④-⑤-⑥-|
口口④⑤
①口②口

⑨⑫口口
口⑦⑪⑨
⑪⑩口口 |⑦-⑧-⑨-|
口⑧口⑦ |⑩-⑪-⑫-|
72
口口③① |①-②-③-|
口⑤口⑥ |④-⑤-⑥-|
口口②③
⑤口①④

⑦⑨口⑪
⑧口⑩口
口⑨⑪口 |⑦-⑧-⑨-|
口⑦⑫口 |⑩-⑪-⑫-|
73
⑦⑪①⑩ |①-②-③-|
口③口⑥ |④-⑤-⑥-|
②⑨⑧④ |⑦-⑧-⑨-|
③⑤⑫① |⑩-⑪-⑫-|
74
口⑪⑫口 |①②③④|
①②③④ |⑤-⑥⑦|
⑨⑧⑦⑥ |⑧⑨⑩-|
⑤⑬口⑩ |⑪⑫-⑬|
75
口口口⑦ |①---|
⑥口口口 |②---|
口⑤④口 |③④⑤⑥|
②口①③ |⑦---|
76
①口口口 |①②③④|
口②③⑧ |⑤⑥⑦⑧|
口口⑦④
⑤⑥口口

口口⑮⑯
⑨⑭口口
⑬⑩口口 |⑨⑩⑪⑫|
口口⑪⑫ |⑬⑭⑮⑯|
77
③①口⑬ |①②-③|
⑥⑦⑧⑨ |-④-⑤|
口⑩⑤② |⑥⑦⑧⑨|
④⑫⑪口 |⑩⑪⑫⑬|
78
②③①口 |①-②③|
口口口口 |-④⑤-|
口口⑤口
口口口④

⑩口口⑧
口⑪⑨口
口⑦口口 |⑥⑦-⑧|
⑥口口口 |⑨-⑩⑪|
79
⑪④⑤⑫ |①②③④|
口⑬⑩③ |⑤⑥-⑦|
②⑨⑧口 |⑧⑨⑩⑪|
⑦⑥①⑭ |-⑫⑬⑭|
80
⑪①④⑫ |①②③④|
⑤口口⑧ |⑤⑥⑦⑧|
口⑨⑩② |⑨⑩⑪⑫|
⑦③⑥口

口⑰⑳口
口⑮⑭口
⑬口口⑱
口⑲口⑯ |⑬⑭⑮⑯⑰⑱⑲⑳|
81
口口口口 |①---|
①口口口 |----|
口口口口 |----|
口口口口 |----|
最終更新:2019年11月21日 18:27