アットウィキロゴ
脳みそ夫体操メインテーマ
脳みそ夫

BASIC

Level: 3
BPM: 130-228
Notes: 166

1
口口口口 |(130)----|
口口口口 |----|
口口口口 |----|
口口口口 |----|
2
口口口口 |----|
口口口口 |----|
口口口口 |----|
口口口口 |----|
3
口口口口 |①---|
口口口口 |----|
口口口口 |②---|
口①②口 |----|
4
口口口口 |①---|
口口口口 |----|
口①①口 |----|
口口口口 |----|
5
口口口口 |①---|
口口口口 |----|
口②①口 |②---|
口口口口 |----|
6
口口口口 |①---|
口①①口 |----|
口口口口 |----|
口口口口 |----|
7
①②口口 |①---|
口口口口 |----|
口口口口 |②---|
口口口口 |----|
8
口口①② |①---|
口口口口 |----|
口口口口 |②---|
口口口口 |----|
9
口口口口 |①---|
口口②① |----|
口口口口 |②---|
口口口口 |----|
10
口口口口 |①---|
②①口口 |----|
口口口口 |②---|
口口口口 |----|
11
口①②口 |①---|
口③④口 |②---|
口口口口 |③---|
口口口口 |④---|
12
①口口① |①---|
口口口口 |----|
口口口口 |----|
口口口口 |----|
13
口②①口 |①---|
口④③口 |②---|
口口口口 |③---|
口口口口 |④---|
14
口口①口 |①---|
口口②口 |②---|
口口③口 |③---|
口口口口 |----|
15
口口口口 |①---|
口口口口 |----|
口①②口 |②---|
口口口口 |----|
16
口口口口 |①---|
口口口口 |----|
口口口口 |----|
口①①口 |----|
17
口口口口 |①---|
口口口口 |----|
口口口口 |②---|
口①②口 |----|
18
口口口口 |①---|
口①①口 |----|
口①①口 |----|
口口口口 |----|
19
①口口口 |①---|
②口口口 |----|
口口口口 |②---|
口口口口 |----|
20
口口口口 |①---|
口口口口 |----|
①口口口 |②---|
②口口口 |----|
21
口口口① |①---|
口口口② |----|
口口口口 |②---|
口口口口 |----|
22
口口口口 |①---|
口口口口 |----|
口口口① |②---|
口口口② |----|
23
口口口口 |①---|
口②②口 |----|
口①①口 |②---|
口口口口 |----|
24
口口口口 |----|
口口口口 |----|
口口口口 |----|
口口口口 |----|
25
口①②口 |①---|
口口口口 |----|
口口口口 |②---|
口口口口 |----|
26
口口口口 |①---|
口①①口 |----|
口口口口 |----|
口口口口 |----|
27
口口口口 |①---|
口②①口 |----|
口口口口 |②---|
口口口口 |----|
28
口口口口 |①---|
口口口口 |----|
口①①口 |----|
口口口口 |----|
29
①口口口 |(140)①---|
②口口口 |----|
口口口口 |②---|
口口口口 |----|
30
口口口口 |①---|
口口口口 |----|
①口口口 |②---|
②口口口 |----|
31
口口口① |(145)①---|
口口口② |----|
口口口口 |②---|
口口口口 |----|
32
口口口口 |①---|
口口口口 |----|
口口口① |②---|
口口口② |----|
33
①口口口 |(160)①---|
②口口口 |----|
口口口口 |②---|
口口口口 |----|
34
口口口口 |①---|
口口口口 |----|
①口口口 |②---|
②口口口 |----|
35
口口口① |(165)①---|
口口口② |----|
口口口口 |②---|
口口口口 |----|
36
口口口口 |①---|
口口口口 |----|
口口口① |②---|
口口口② |----|
37
口①口口 |(175)①---|
口②口口 |----|
口口口口 |②---|
口口口口 |----|
38
口口口口 |①---|
口口口口 |----|
口①口口 |②---|
口②口口 |----|
39
口口①口 |(180)①---|
口口②口 |----|
口口口口 |②---|
口口口口 |----|
40
口口口口 |①---|
口口口口 |----|
口口①口 |②---|
口口②口 |----|
41
口①口口 |(190)①---|
口②口口 |----|
口口口口 |②---|
口口口口 |----|
42
口口口口 |①---|
口口口口 |----|
口①口口 |②---|
口②口口 |----|
43
口口①口 |①---|
口口②口 |----|
口口口口 |②---|
口口口口 |----|
44
口口口口 |①---|
口口口口 |----|
口口①口 |②---|
口口②口 |----|
45
①口口口 |(205)①---|
②口口口 |----|
口口口口 |②---|
口口口口 |----|
46
口口口口 |①---|
口口口口 |----|
①口口口 |②---|
②口口口 |----|
47
口口口口 |(208)①---|
口口口口 |----|
口②口口 |②---|
口①口口 |----|
48
口②口口 |①---|
口①口口 |----|
口口口口 |②---|
口口口口 |----|
49
口口①口 |①---|
口口②口 |----|
口口口口 |②---|
口口口口 |----|
50
口口口口 |①---|
口口口口 |----|
口口①口 |②---|
口口②口 |----|
51
口口口口 |(213)①---|
口口口口 |----|
口口口② |②---|
口口口① |----|
52
口口口② |①---|
口口口① |----|
口口口口 |②---|
口口口口 |----|
53
口②①口 |①---|
口口口口 |----|
口口口口 |②---|
口口口口 |----|
54
①口口口 |①---|
②口口口 |----|
口口口口 |②---|
口口口口 |----|
55
口口口口 |(215)①---|
口口口口 |----|
①口口口 |②---|
②口口口 |----|
56
口口口口 |①---|
口口口口 |----|
口口口口 |②---|
口①②口 |----|
57
口口口口 |(218)①---|
口口口口 |----|
口口口② |②---|
口口口① |----|
58
口口口② |①---|
口口口① |----|
口口口口 |②---|
口口口口 |----|
59
口②①口 |(223)①---|
口口口口 |----|
口口口口 |②---|
口口口口 |----|
60
①口口口 |①---|
②口口口 |----|
口口口口 |②---|
口口口口 |----|
61
口口口口 |(228)①---|
口口口口 |----|
①口口口 |②---|
②口口口 |----|
62
口口口口 |①---|
口口口口 |----|
口口口口 |②---|
口①②口 |----|
63
口口口口 |①---|
口口口口 |----|
口口口② |②---|
口口口① |----|
64
口口口② |①---|
口口口① |----|
口口口口 |②---|
口口口口 |----|
65
口口口口 |(130)①---|
口①①口 |----|
口①①口 |----|
口口口口 |----|
66
口口口口 |----|
口口口口 |----|
口口口口 |----|
口口口口 |----|
67
①②口口 |①---|
口口口口 |----|
口口口口 |②---|
口口口口 |----|
68
口口①② |①---|
口口口口 |----|
口口口口 |②---|
口口口口 |----|
69
口口口口 |①---|
口口②① |----|
口口口口 |②---|
口口口口 |----|
70
口口口口 |①---|
②①口口 |----|
口口口口 |②---|
口口口口 |----|
71
②口口② |(82)①---|
④口口④ |(77)②---|
口①①口 |(75)③---|
口③③口 |(80)④---|
72
口口口口 |(75)①---|
②①①② |----|
②①①② |(78)②---|
口口口口 |----|
73
口口口口 |①---|
口①①口 |----|
口①①口
口口口口

口口口口
口②②口
口口②口 |②---|
口口口口 |----|

accuracy: 99.5%
最終更新:2024年08月11日 08:08