アットウィキロゴ
脳みそ夫体操メインテーマ
脳みそ夫

ADVANCED

Level: 7
BPM: 130-228
Notes: 452

1
口口口口 |(130)----|
口口口口 |----|
口口口口 |----|
口口口口 |----|
2
口口口口 |----|
口口口口 |----|
口口口口 |----|
口口口口 |----|
3
①口口② |①---|
口口口口 |②---|
口口口口 |③---|
③口口④ |④---|
4
口①口口 |①---|
口口①口 |----|
口口①口 |----|
口口①口 |----|
5
①口口② |①---|
口口口口 |②---|
口口口口 |③---|
③口口④ |④---|
6
口①口口 |①---|
口口①口 |----|
口口①口 |----|
口口①口 |----|
7
口口口口 |①---|
口口口口 |②---|
③口口④ |③---|
①口口② |④---|
8
口③口口 |①---|
①口③② |②---|
口口③口 |③---|
口口③口 |----|
9
口口口口 |①---|
口口口口 |②---|
③口口④ |③---|
①口口② |④---|
10
口③口口 |①---|
①口③② |②---|
口口③口 |③---|
口口③口 |----|
11
口口口口 |①---|
口口口口 |②---|
口口口口 |③---|
①②③④ |④---|
12
口口口口 |①---|
口口口口 |----|
口①①口 |----|
口口口口 |----|
13
口口口口 |①---|
口口口口 |②---|
④③②① |③---|
口口口口 |④---|
14
口口口口 |①---|
口①口口 |②---|
口口②口 |③---|
口③口口 |----|
15
口口口口 |①---|
口口口口 |②---|
①②③④ |③---|
口口口口 |④---|
16
口口口口 |①---|
口①①口 |----|
口口口口 |----|
口口口口 |----|
17
口口口① |①---|
②口口口 |②---|
口口口③ |③---|
④口口口 |④---|
18
口①口口 |①---|
口口①口 |----|
口口①口 |----|
口口①口 |----|
19
口口口口 |①--②|
口③④口 |----|
口⑤口口 |③-④-|
①①②② |⑤---|
20
口③口口 |①---|
②口③② |②---|
口口③口 |③---|
①口③① |----|
21
口口口口 |①--②|
口③④口 |----|
口⑤口口 |③-④-|
①①②② |⑤---|
22
口③口口 |①---|
②口③② |②---|
口口③口 |③---|
①口③① |----|
23
口②口② |①---|
③口③口 |②---|
口④口口 |③---|
①①⑤口 |④-⑤-|
24
①口口② |①---|
口口口口 |②---|
口口口口 |③---|
③口口④ |④---|
25
①口口② |①---|
口口口口 |②---|
口口口口 |③---|
③口口④ |④---|
26
口①口口 |①---|
口口①口 |----|
口口①口 |----|
口口①口 |----|
27
①口口② |①---|
口口口口 |②---|
口口口口 |③---|
③口口④ |④---|
28
口①口口 |①---|
口口①口 |----|
口口①口 |----|
口口①口 |----|
29
口口口口 |(140)①--②|
口③④口 |----|
口⑤口口 |③-④-|
①①②② |⑤---|
30
口③口口 |①---|
②口③② |②---|
口口③口 |③---|
①口③① |----|
31
口口口口 |(145)①--②|
口③④口 |----|
口⑤口口 |③-④-|
①①②② |⑤---|
32
口③口口 |①---|
②口③② |②---|
口口③口 |③---|
①口③① |----|
33
口口口口 |(160)①--②|
口③④口 |----|
口⑤口口 |③-④-|
①①②② |⑤---|
34
口③口口 |①---|
②口③② |②---|
口口③口 |③---|
①口③① |----|
35
口口口口 |(165)①--②|
口③④口 |----|
口⑤口口 |③-④-|
①口口② |⑤---|
36
口③口口 |①---|
②口③② |②---|
口口③口 |③---|
①口③① |----|
37
②⑤⑥④ |(175)①-②③|
口⑦口口 |-④--|
①口口③ |⑤-⑥-|
口口口口 |⑦---|
38
口③口口 |①---|
②口③② |②---|
口口③口 |③---|
①口③① |----|
39
②⑤⑥④ |(180)①-②③|
口⑦口口 |-④--|
①口口③ |⑤-⑥-|
口口口口 |⑦---|
40
口③口口 |①---|
②口③② |②---|
口口③口 |③---|
①口③① |----|
41
②⑤⑥④ |(190)①-②③|
口⑦口口 |-④--|
①口口③ |⑤-⑥-|
口口口口 |⑦---|
42
口③口口 |①---|
②口③② |②---|
口口③口 |③---|
①口③① |----|
43
②⑤⑥④ |①-②③|
口⑦口口 |-④--|
①口口③ |⑤-⑥-|
口口口口 |⑦---|
44
口③口口 |①---|
②口③② |②---|
口口③口 |③---|
①口③① |----|
45
②口口④ |(205)①-②③|
⑤口口⑥ |-④--|
①⑦口③ |⑤-⑥-|
口口口口 |⑦---|
46
②③口② |①---|
口口③口 |②---|
口口③口 |③---|
①口③① |----|
47
口口口④ |(208)①-②③|
⑦③口⑥ |-④--|
口⑤口② |⑤-⑥-|
口①口口 |⑦---|
48
②③口② |①---|
口口③口 |②---|
口口③口 |③---|
①口③① |----|
49
口口口④ |①-②③|
⑦③口⑥ |-④--|
口⑤口② |⑤-⑥-|
口①口口 |⑦---|
50
②③口② |①---|
口口③口 |②---|
口口③口 |③---|
①口③① |----|
51
⑦口口⑧ |(213)①-②-|
⑤口口⑥ |③-④-|
③口口④ |⑤-⑥-|
①口口② |⑦-⑧-|
52
口①②口 |①-②-|
口③④口 |③-④-|
口⑤⑥口 |⑤-⑥-|
口⑦⑧口 |⑦-⑧-|
53
⑦口口⑧ |①-②-|
⑤口口⑥ |③-④-|
③口口④ |⑤-⑥-|
①口口② |⑦-⑧-|
54
口①②口 |①-②-|
口③④口 |③-④-|
口⑤⑥口 |⑤-⑥-|
口⑦⑧口 |⑦-⑧-|
55
⑧口口④ |(215)①-②-|
③口口⑦ |③-④-|
⑥口口② |⑤-⑥-|
①口口⑤ |⑦-⑧-|
56
口⑤①口 |①-②-|
口②⑥口 |③-④-|
口⑦③口 |⑤-⑥-|
口④⑧口 |⑦-⑧-|
57
⑧口口④ |(218)①-②-|
③口口⑦ |③-④-|
⑥口口② |⑤-⑥-|
①口口⑤ |⑦-⑧-|
58
口⑤①口 |①-②-|
口②⑥口 |③-④-|
口⑦③口 |⑤-⑥-|
口④⑧口 |⑦-⑧-|
59
④口口⑧ |(223)①-②-|
③口口⑦ |③-④-|
②口口⑥ |⑤-⑥-|
①口口⑤ |⑦-⑧-|
60
口①⑤口 |①-②-|
口②⑥口 |③-④-|
口③⑦口 |⑤-⑥-|
口④⑧口 |⑦-⑧-|
61
⑦口口⑧ |(228)①-②-|
⑤口口⑥ |③-④-|
③口口④ |⑤-⑥-|
①口口② |⑦-⑧-|
62
口①②口 |①-②-|
口③④口 |③-④-|
口⑤⑥口 |⑤-⑥-|
口⑦⑧口 |⑦-⑧-|
63
⑦口口⑧ |①-②-|
⑤口口⑥ |③-④-|
③口口④ |⑤-⑥-|
①口口② |⑦-⑧-|
64
口①②口 |①-②-|
口③④口 |③-④-|
口⑤⑥口 |⑤-⑥-|
口⑦⑧口 |⑦-⑧-|
65
口②口口 |(130)①---|
①口②① |----|
①口②① |---②|
口口②口 |----|
66
口口口口 |----|
口口口口 |----|
口口口口 |----|
口口口口 |----|
67
口口口口 |①---|
口口口口 |②---|
③口口④ |③---|
①口口② |④---|
68
口③口口 |①---|
①口③② |②---|
口口③口 |③---|
口口③口 |----|
69
口口口口 |①---|
口口口口 |②---|
③口口④ |③---|
①口口② |④---|
70
口③口口 |①---|
①口③② |②---|
口口③口 |③---|
口口③口 |----|
71
口口口口 |(82)①---|
①②②① |(77)②---|
①②②①
口口口口

口口口口
③④④③
③④④③ |(75)③---|
口口口口 |(80)④---|
72
口②②口 |(75)①---|
口口口口 |----|
口口口口 |(78)②---|
口①①口 |----|
73
口口口口 |①---|
口①①口 |----|
口①①口
口口口口

口②口口
口口②口
口口②口 |②---|
口口②口 |----|

accuracy: 99.5%
最終更新:2024年08月11日 08:08