アットウィキロゴ
脳みそ夫体操メインテーマ
脳みそ夫

EXTREME

Level: 9.2
BPM: 130-228
Notes: 566

1
口口口口 |(130)----|
口口口口 |----|
口口口口 |----|
口口口口 |----|
2
口口口口 |----|
口口口口 |----|
口口口口 |----|
口口口口 |----|
3
①口口② |①---|
口口口口 |②---|
口口口口 |③---|
③口口④ |④---|
4
口①口口 |①---|
口口①口 |----|
口口①口 |----|
口口①口 |----|
5
①口口② |①---|
口口口口 |②---|
口口口口 |③---|
③口口④ |④---|
6
口①口口 |①---|
口口①口 |----|
口口①口
口口①口

④口口④
口口口口
口口②口 |--②③|
口③口口 |④---|
7
⑦口口⑧ |①-②-|
⑤口口⑥ |③-④-|
③口口④ |⑤-⑥-|
①口口② |⑦-⑧-|
8
⑨⑤④⑩ |①②③④|
口③口⑧ |⑤---|
⑦口②口 |⑥⑦⑧⑨|
口①口⑥ |⑩---|
9
⑦口口⑧ |①-②-|
⑤口口⑥ |③-④-|
③口口④ |⑤-⑥-|
①口口② |⑦-⑧-|
10
⑪⑤④⑫ |①②③④|
口③⑥⑩ |⑤-⑥⑦|
⑨⑦②口 |⑧⑨⑩⑪|
口①口⑧ |⑫---|
11
④口⑥口 |①---|
口⑤口⑦ |②-③-|
口③②口 |④-⑤-|
①口①口 |⑥-⑦-|
12
口口口口 |①②③④|
口口口口 |⑤⑥--|
口⑥⑤④ |----|
①②③口 |----|
13
⑧⑥⑤⑨ |①-②-|
口口⑦口 |③-④-|
口③口④ |⑤⑥⑦-|
①口②口 |⑧-⑨-|
14
口口口口 |①---|
口口口口 |②---|
①②②口 |③---|
①口③③ |----|
15
口口口② |①-②-|
口①口口 |--③-|
①③②口
口口口口

口口④口
⑤口口口
口口⑥口 |④-⑤-|
⑦口口口 |⑥-⑦-|
16
口口④口 |①-②③|
口③②口 |④---|
口口口口 |----|
口口①① |----|
17
④①①口 |①---|
口口②⑤ |②-③-|
⑥③口口 |④-⑤-|
口口口⑦ |⑥-⑦-|
18
口①口口 |①---|
口口①口 |----|
口口①口 |----|
口口①口 |----|
19
口口④口 |①②③④|
口⑤⑥④ |⑤⑥--|
①③②口
口①口口

⑦口口口
⑧口口口
⑨口口口 |⑦-⑧-|
口口口口 |⑨---|
20
口④口口 |①-②-|
口口④③ |③---|
口口④② |④---|
口口④① |----|
21
口口④口 |①②③④|
口⑤⑥④ |⑤⑥--|
①③②口
口①口口

⑦口口口
⑧口口口
⑨口口口 |⑦-⑧-|
口口口口 |⑨---|
22
口④口口 |①-②-|
口口④③ |③---|
口口④② |④---|
口口④① |----|
23
口口②口 |①---|
口④③口 |②---|
口③⑤② |③---|
①①口口 |④-⑤-|
24
①口口② |①---|
口口口口 |②---|
口口口口 |③---|
③口口④ |④---|
25
①口口② |①---|
口口口口 |②---|
口口口口 |③---|
③口口④ |④---|
26
口①口口 |①---|
口口①口 |----|
口口①口 |----|
口口①口 |----|
27
①口口② |①---|
口口口口 |②---|
口口口口 |③---|
③口口④ |④---|
28
口①口口 |①---|
口口①口 |----|
口口①口 |----|
口口①口 |----|
29
口口⑦⑥ |(140)①②③④|
③⑧口⑤ |⑤⑥--|
②口⑨④ |⑦-⑧-|
①口口口 |⑨---|
30
①⑤口① |①-②③|
口口⑤② |④---|
③口⑤口 |⑤---|
口口⑤④ |----|
31
口口⑦⑥ |(145)①②③④|
③⑧口⑤ |⑤⑥--|
②口⑨④ |⑦-⑧-|
①口口口 |⑨---|
32
①⑤口① |①-②③|
口口⑤② |④---|
③口⑤口 |⑤---|
口口⑤④ |----|
33
口口⑦口 |(160)①②③④|
③⑧口⑥ |⑤⑥--|
②口⑨⑤ |⑦-⑧-|
①口口④ |⑨---|
34
①⑤口① |①-②③|
口口⑤② |④---|
③口⑤口 |⑤---|
口口⑤④ |----|
35
口口⑦口 |(165)①②③④|
③⑧口⑥ |⑤⑥--|
②口⑨⑤ |⑦-⑧-|
①口口④ |⑨---|
36
①口口① |①-②③|
口口口② |④---|
③口口口
口口口④

⑩⑤⑨⑪
⑥口⑤口
口⑫⑤⑦ |⑤⑥⑦⑧|
⑧口⑤口 |⑨⑩⑪⑫|
37
⑨⑧⑦口 |(175)①②③④|
口⑥口③ |⑤⑥--|
②口⑤口 |⑦-⑧-|
口④口① |⑨---|
38
口⑤口① |①-②③|
口口⑤② |④---|
③口⑤口 |⑤---|
口口⑤④ |----|
39
口口口口 |(180)①②③④|
③口⑦⑥ |⑤⑥--|
⑤口⑧② |⑦-⑧-|
①⑨口④ |⑨---|
40
①⑤口① |①-②③|
口口⑤② |④---|
③口⑤口 |⑤---|
口口⑤④ |----|
41
⑦口口口 |(190)①②③④|
③口⑧⑥ |⑤⑥--|
②⑨口⑤ |⑦-⑧-|
①口口④ |⑨---|
42
口⑤口① |①-②③|
②口⑤口 |④---|
口口⑤③ |⑤---|
④口⑤口 |----|
43
口口口口 |①②③④|
⑦③口⑥ |⑤⑥--|
口②⑧⑤ |⑦-⑧-|
⑨①口④ |⑨---|
44
口⑤口① |①-②③|
口②⑤口 |④---|
口口⑤③ |⑤---|
口④⑤口 |----|
45
口⑦⑧⑨ |(205)①②③④|
③口口⑥ |⑤⑥--|
②口口⑤ |⑦-⑧-|
①口口④ |⑨---|
46
①⑤口口 |①-②③|
口口⑤④ |④---|
③口⑤口 |⑤---|
口口⑤② |----|
47
口⑦⑧⑨ |(208)①②③④|
③口口⑥ |⑤⑥--|
⑤口口② |⑦-⑧-|
①口口④ |⑨---|
48
①⑤口口 |①-②③|
口口⑤② |④---|
③口⑤口 |⑤---|
口口⑤④ |----|
49
口⑦⑧⑨ |①②③④|
③口口⑥ |⑤⑥--|
⑤口口② |⑦-⑧-|
①口口④ |⑨---|
50
①⑤口口 |①-②③|
口口⑤④ |④---|
③口⑤口 |⑤---|
口口⑤② |----|
51
②⑥⑧④ |(213)①-②-|
口口口口 |③-④-|
口口口口 |⑤-⑥-|
①⑤⑦③ |⑦-⑧-|
52
口口口口 |①-②-|
①⑤⑦③ |③-④-|
②⑥⑧④ |⑤-⑥-|
口口口口 |⑦-⑧-|
53
①口口② |①-②-|
⑤口口⑥ |③-④-|
⑦口口⑧ |⑤-⑥-|
③口口④ |⑦-⑧-|
54
口②①口 |①-②-|
口⑥⑤口 |③-④-|
口⑧⑦口 |⑤-⑥-|
口④③口 |⑦-⑧-|
55
①⑤⑦③ |(215)①-②-|
口口口口 |③-④-|
口口口口 |⑤-⑥-|
④⑧⑥② |⑦-⑧-|
56
①口口③ |①-②-|
⑥口口⑧ |③-④-|
⑦口口⑤ |⑤-⑥-|
④口口② |⑦-⑧-|
57
口⑤⑦口 |(218)①-②-|
口①③口 |③-④-|
口④②口 |⑤-⑥-|
口⑧⑥口 |⑦-⑧-|
58
口口口口 |①-②-|
⑥①③⑦ |③-④-|
⑧④②⑤ |⑤-⑥-|
口口口口 |⑦-⑧-|
59
③口口① |(223)①-②-|
口⑦⑤口 |③-④-|
口⑥⑧口 |⑤-⑥-|
②口口④ |⑦-⑧-|
60
口口口① |①-②-|
口口口② |③-④-|
⑧口口③ |⑤-⑥-|
⑦⑥⑤④ |⑦-⑧-|
61
②③④⑤ |(228)①-②-|
①口口⑥ |③-④-|
口口口⑦ |⑤-⑥-|
口口口⑧ |⑦-⑧-|
62
⑥⑦⑧口 |①-②-|
⑤口口口 |③-④-|
④口口口 |⑤-⑥-|
③②①口 |⑦-⑧-|
63
口口口① |①-②-|
口口口② |③-④-|
⑧口口③ |⑤-⑥-|
⑦⑥⑤④ |⑦-⑧-|
64
②③④⑤ |①-②-|
①口口⑥ |③-④-|
口口口⑦ |⑤-⑥-|
口口口⑧ |⑦-⑧-|
65
口口口口 |(130)①---|
口①①口 |----|
口①①口
口口口口

口②口口
口口②口
口口②口 |---②|
口口②口 |----|
66
口口口口 |----|
口口口口 |----|
口口口口 |----|
口口口口 |----|
67
⑦口口⑧ |①-②-|
⑤口口⑥ |③-④-|
③口口④ |⑤-⑥-|
①口口② |⑦-⑧-|
68
⑨⑤④⑩ |①②③④|
口③口⑧ |⑤---|
⑦口②口 |⑥⑦⑧⑨|
口①口⑥ |⑩---|
69
⑦口口⑧ |①-②-|
⑤口口⑥ |③-④-|
③口口④ |⑤-⑥-|
①口口② |⑦-⑧-|
70
⑪⑤④⑫ |①②③④|
口③⑥⑩ |⑤-⑥⑦|
⑨⑦②口 |⑧⑨⑩⑪|
口①口⑧ |⑫---|
71
口口口口 |(82)①---|
②①①② |(77)②---|
②①①②
口口口口

口④④口
口③③口
口③③口 |(75)③---|
口④④口 |(80)④---|
72
口口口口 |(75)①---|
口①①口 |----|
口①①口 |(78)②---|
②②②② |----|
73
①①①① |①---|
口口口口 |----|
口口口口
口口口口

口②口口
口口②口
口口②口 |②---|
口口②口 |----|

accuracy: 99.5%
最終更新:2024年08月11日 08:08