アットウィキロゴ
ハッピーウェディング前ソング
ヤバイTシャツ屋さん

BASIC

Level: 4
BPM: 183
Notes: 227

1
口口口口 |----|
口口口口 |----|
口口口口 |----|
口口口口 |----|
2
口口口口 |----|
口口口口 |----|
口口口口 |----|
口口口口 |----|
3
口口口口 |①---|
口口口口 |----|
口口口口 |----|
口①①口 |----|
4
口口口口 |----|
口口口口 |----|
口口口口 |----|
口口口口 |----|
5
口口口口 |①---|
口口口口 |----|
口①①口 |----|
口口口口 |----|
6
口①口口 |----|
口口口口 |----|
口口口口 |----|
口口口口 |--①-|
7
口口口口 |----|
口口①口 |--①-|
口②口口 |----|
口口口口 |--②-|
8
口口口口 |----|
口口口口 |--①-|
口口口口 |----|
口口①口 |----|
9
口口口口 |①---|
口口口口 |----|
口口②① |②---|
口口口口 |----|
10
口口口口 |①---|
口口口口 |----|
②①口口 |②---|
口口口口 |----|
11
口口口口 |①---|
口口口口 |----|
口口口口 |----|
口①①口 |----|
12
口口口口 |①---|
口口口口 |----|
口①①口 |----|
口口口口 |----|
13
口口①口 |①---|
口①口口 |----|
口口口口 |----|
口口口口 |----|
14
口①口口 |①---|
口口①口 |----|
口口口口 |----|
口口口口 |----|
15
口①①口 |①---|
口口口口 |----|
口口口口 |----|
口口口口 |----|
16
口口口口 |①---|
口①①口 |----|
口口口口 |----|
口口口口 |----|
17
口口口口 |①---|
口口口口 |----|
口①①口 |----|
口口口口 |----|
18
口口口口 |①---|
口口口口 |----|
口口口口 |----|
口①①口 |----|
19
口口口口 |①---|
口口口口 |----|
口口口口 |----|
①口口① |----|
20
口口口口 |①---|
口口口口 |----|
①口口① |----|
口口口口 |----|
21
口口①口 |①---|
口①口口 |----|
口口口口 |----|
口口口口 |----|
22
口①口口 |①---|
口口①口 |----|
口口口口 |----|
口口口口 |----|
23
①口口① |①---|
口口口口 |----|
口口口口 |----|
口口口口 |----|
24
口口口口 |①---|
①口口① |----|
口口口口 |----|
口口口口 |----|
25
口口口口 |①---|
口口口口 |----|
①口口① |----|
口口口口 |----|
26
口口口口 |①---|
口口口口 |----|
口口口口 |----|
①口口① |----|
27
口口口口 |①---|
口口①口 |----|
口口口口 |----|
口口口口 |----|
28
口口口口 |①---|
口①口口 |----|
口口口口 |----|
口口口口 |----|
29
口口口口 |①---|
口口口口 |----|
口口①口 |----|
口口口口 |----|
30
口口口口 |①---|
口口口口 |----|
口①口口 |----|
口口口口 |----|
31
口①②口 |①---|
口口口口 |----|
口口口口 |②---|
口口口口 |----|
32
口口口口 |①---|
口①②口 |----|
口口口口 |②---|
口口口口 |----|
33
口口口口 |①---|
口口口口 |----|
口①②口 |②---|
口口口口 |----|
34
口口口口 |①---|
口口口口 |----|
口口口口 |②---|
口①②口 |----|
35
①①口口 |①---|
②②口口 |----|
口口口口 |②---|
口口口口 |----|
36
口口口口 |①---|
口口口口 |----|
①①口口 |②---|
②②口口 |----|
37
口口口口 |①---|
口口口口 |----|
口口②② |②---|
口口①① |----|
38
口口②② |①---|
口口①① |----|
口口口口 |②---|
口口口口 |----|
39
口①口口 |①---|
口②口口 |②---|
口③口口 |③---|
口④口口 |④---|
40
口口④口 |①---|
口口③口 |②---|
口口②口 |③---|
口口①口 |④---|
41
口①口口 |①---|
口②口口 |②---|
口③口口 |③---|
口④口口 |④---|
42
口口④口 |①---|
口口③口 |②---|
口口②口 |③---|
口口①口 |④---|
43
①口口口 |①---|
口②口口 |②---|
口口③口 |③---|
口口口④ |④---|
44
口口口③ |①---|
口口口② |②---|
口口口① |③---|
口口口口 |----|
45
①口口口 |①---|
口②口口 |②---|
口口③口 |③---|
口口口④ |④---|
46
口口口③ |①---|
口口口② |②---|
口口口① |③---|
口口口口 |----|
47
口口①口 |①---|
口口②口 |②---|
口口③口 |③---|
口口④口 |④---|
48
口④口口 |①---|
口③口口 |②---|
口②口口 |③---|
口①口口 |④---|
49
口口①口 |①---|
口口②口 |②---|
口口③口 |③---|
口口④口 |④---|
50
口④口口 |①---|
口③口口 |②---|
口②口口 |③---|
口①口口 |④---|
51
口口口① |①---|
口口②口 |②---|
口③口口 |③---|
④口口口 |④---|
52
③口口口 |①---|
②口口口 |②---|
①口口口 |③---|
口口口口 |----|
53
口口口① |①---|
口口②口 |②---|
口③口口 |③---|
④口口口 |④---|
54
③口口口 |①---|
②口口口 |②---|
①口口口 |③---|
口口口口 |----|
55
口口口口 |①---|
④③②① |②---|
口口口口 |③---|
口口口口 |④---|
56
口口口口 |①---|
口口口口 |②---|
①②③④ |③---|
口口口口 |④---|
57
口口口口 |①---|
④③②① |②---|
口口口口 |③---|
口口口口 |④---|
58
口口口口 |①---|
口口口口 |②---|
①②③④ |③---|
口口口口 |④---|
59
口口口① |①---|
口口②口 |②---|
口③口口 |③---|
④口口口 |④---|
60
③口口口 |①---|
②口口口 |②---|
①口口口 |③---|
口口口口 |----|
61
口口口① |①---|
口口②口 |②---|
口③口口 |③---|
④口口口 |④---|
62
③口口口 |①---|
②口口口 |②---|
①口口口 |③---|
口口口口 |----|
63
口①口口 |①---|
口②口口 |②---|
口③口口 |③---|
口④口口 |④---|
64
口口④口 |①---|
口口③口 |②---|
口口②口 |③---|
口口①口 |④---|
65
口①口口 |①---|
口②口口 |②---|
口③口口 |③---|
口④口口 |④---|
66
口口④口 |①---|
口口③口 |②---|
口口②口 |③---|
口口①口 |④---|
67
①口口口 |①---|
口②口口 |②---|
口口③口 |③---|
口口口④ |④---|
68
口口口③ |①---|
口口口② |②---|
口口口① |③---|
口口口口 |----|
69
口口口口 |①---|
①②③④ |②---|
口口口口 |③---|
口口口口 |④---|
70
口口口口 |①---|
口口口口 |②---|
④③②① |③---|
口口口口 |④---|
71
①②③④ |①---|
口口口口 |②---|
口口口口 |③---|
口口口口 |④---|
72
口口口口 |①---|
④③②① |②---|
口口口口 |③---|
口口口口 |④---|
73
①②③④ |①---|
口口口口 |②---|
口口口口 |③---|
口口口口 |④---|
74
口口口口 |①---|
④③②① |②---|
口口口口 |③---|
口口口口 |④---|
75
口①①口 |①---|
口口口口 |----|
口口口口 |----|
口口口口 |----|
76
口口口口 |----|
口口口口 |----|
口口口口 |----|
口口口口 |----|
77
口口口口 |①---|
口①①口 |----|
口口口口 |----|
口口口口 |----|
78
口①口口 |----|
口口口口 |----|
口口口口 |----|
口口口口 |--①-|
79
口口口口 |----|
口口①口 |--①-|
口②口口 |----|
口口口口 |--②-|
80
口口口口 |----|
口口口口 |--①-|
口口口口 |----|
口口①口 |----|
81
口口口口 |①---|
口口口口 |----|
①口口① |----|
口口口口 |----|
82
口口口口 |①---|
①口口① |----|
口口口口 |----|
口口口口 |----|
83
①口口① |①---|
口口口口 |----|
口口口口 |----|
口口口口 |----|
84
口口口口 |----|
口①①口 |--①-|
口①①口 |----|
口口口口 |----|
85
口口口口 |----|
口口口口 |----|
口口口口 |----|
口口口口 |----|

accuracy: 99.5%
最終更新:2023年06月29日 16:59