アットウィキロゴ
ハッピーウェディング前ソング
ヤバイTシャツ屋さん

ADVANCED

Level: 7
BPM: 183
Notes: 511

1
口口口口 |----|
口口口口 |----|
口口口口 |----|
口口口口 |----|
2
口口口口 |----|
口口口口 |----|
口口口口 |----|
口口口口 |----|
3
①②③④ |①---|
口口口口 |②---|
口口口口 |③---|
口口口口 |④---|
4
口口口口 |①---|
④③②① |②---|
口口口口 |③---|
口口口口 |④---|
5
口口口口 |①---|
口口口口 |②---|
①②③④ |③---|
口口口口 |④---|
6
口口口口 |①---|
口⑤⑤口 |②---|
口口口口 |③---|
④③②① |④-⑤-|
7
③口口③ |--①-|
⑥口口⑥ |②-③-|
口②①口 |--④-|
口⑤④口 |⑤-⑥-|
8
③⑤④③ |--①-|
口口⑥口 |②-③-|
口②①口 |--④-|
口口口口 |⑤-⑥-|
9
口口口口 |①---|
口口口口 |②---|
①②③④ |③---|
口口口口 |④---|
10
口口口口 |①---|
口⑤④口 |②---|
口口⑥口 |③-④-|
口③②① |⑤-⑥-|
11
①口口口 |①---|
②口口口 |②---|
③口口口 |③---|
④口口口 |④---|
12
口⑤口① |①---|
口口口② |②---|
口口口③ |③---|
口口口④ |④-⑤-|
13
④口口③ |--①-|
⑥口①⑤ |--②-|
口②口口 |③-④-|
口口口口 |⑤-⑥-|
14
口⑥⑤④ |①--②|
口③③口 |--③-|
②口口② |--④-|
口①①口 |⑤-⑥-|
15
①口口口 |①-②-|
⑤口口⑤ |③-④-|
②③④口 |⑤---|
口⑥⑦口 |⑥-⑦-|
16
⑥口口口 |①-②-|
口⑤⑤口 |③-④-|
①②③④ |--⑤-|
口口口口 |--⑥-|
17
口口口① |①-②-|
②口口③ |③-④-|
④口口⑤ |⑤-⑥-|
⑥⑧口⑦ |⑦-⑧-|
18
口⑥⑤口 |①-②-|
口④⑦口 |③-④-|
口②③口 |--⑤-|
口口①口 |⑥-⑦-|
19
①口口口 |①---|
②口口口 |②---|
③口口口 |③---|
④口口口 |④---|
20
口口口① |①---|
口口口② |②---|
口口口口
口口口口

⑤口口⑤
口口口口
口口口③ |③---|
口口口④ |④-⑤-|
21
口口口口 |--①-|
⑥②①口 |②-③-|
口④③口 |④-⑤-|
口口⑤口 |--⑥-|
22
口口⑤口 |①-②-|
口⑥口① |③-④-|
②口⑦③ |--⑤-|
④口口口 |⑥-⑦-|
23
②④口口 |①-②-|
口口⑤③ |③-④-|
口⑥口口 |⑤-⑥-|
⑧①⑦口 |⑦-⑧-|
24
④口⑤③ |①-②-|
②口⑥口 |③-④-|
口口⑦① |--⑤-|
口口口口 |⑥-⑦-|
25
口口口口 |①-②-|
①④⑤② |③---|
口⑥⑦口 |④-⑤-|
口③③口 |⑥-⑦-|
26
口口口口 |----|
口口口口 |----|
口口口口 |----|
口口口口 |----|
27
口口口口 |①---|
②④④③ |--②-|
口④④口 |③---|
口①①口 |④---|
28
口口口口 |①---|
②④④③ |--②-|
口④④口 |③---|
口①①口 |④---|
29
⑤口口⑤ |①---|
②④④③ |--②-|
口④④口 |③---|
口①①口 |④-⑤-|
30
⑤①②⑤ |--①-|
口④④口 |②---|
③④④③ |③---|
口口口口 |④-⑤-|
31
口①①口 |--①-|
②口口③ |--②-|
④口口⑤ |③-④-|
⑥口口口 |⑤-⑥-|
32
④⑥⑥④ |①-②-|
⑤口口⑤ |③-④-|
口口口口 |--⑤-|
口②③① |--⑥-|
33
口口口口 |--①-|
口口口口 |②-③-|
①②③④ |④-⑤-|
口⑤⑥口 |⑥---|
34
⑦口口⑥ |①-②-|
④③②① |③-④-|
口⑤⑤口 |⑤---|
口口口口 |⑥-⑦-|
35
口口口口 |--①-|
②②①① |----|
口口口口 |--②-|
口口口口 |----|
36
口口口口 |--①-|
口口口口 |----|
②②①① |--②-|
口口口口 |----|
37
口口口口 |--①-|
②②①① |----|
口口口口 |--②-|
口口口口 |----|
38
口口口口 |--①-|
口口口口 |----|
口④①① |--②-|
口②③口 |③-④-|
39
①①②② |①---|
①①②② |----|
口口口口 |②---|
口口口口 |----|
40
口口口口 |①---|
口口口口 |----|
①①②② |②---|
①①②② |----|
41
①①②② |①---|
①①②② |----|
口口口口 |②---|
口口口口 |----|
42
口口口口 |----|
口③口口 |----|
口①②口 |--①-|
口口口口 |②-③-|
43
口②①① |①---|
口口③口 |②-③-|
口④口⑦ |④-⑤-|
⑥口⑤口 |⑥-⑦-|
44
②口口② |①-②-|
①口口口 |--③-|
⑥③③口 |--④-|
口⑤④口 |⑤-⑥-|
45
⑧口口⑧ |①-②-|
④③②① |③-④-|
口⑤⑤口 |⑤-⑥-|
口⑦⑥口 |⑦-⑧-|
46
口口口口 |--①-|
口①①③ |--②-|
口②②④ |--③-|
口口口⑤ |④-⑤-|
47
⑤口口⑤ |①-②-|
⑥口口⑥ |③-④-|
⑦③④口 |⑤-⑥-|
口①②口 |--⑦-|
48
④⑥⑥④ |--①-|
⑤口口⑤ |②-③-|
口口③口 |④-⑤-|
口②①口 |--⑥-|
49
⑦口口⑦ |--①-|
口①②口 |②-③-|
口③④口 |④-⑤-|
口⑤⑥口 |⑥-⑦-|
50
⑦口口口 |--①-|
⑥①②口 |②-③-|
⑤③④口 |④-⑤-|
口口口口 |⑥-⑦-|
51
口①①口 |①---|
口口口口 |②-③-|
⑤④③② |④-⑤-|
口⑦⑥口 |⑥-⑦-|
52
②口口② |①-②-|
③口口③ |--③-|
口④⑤口 |--④-|
①⑥口口 |⑤-⑥-|
53
④③②① |①-②-|
⑦⑥⑤⑦ |③-④-|
口口口口 |⑤-⑥-|
口口口口 |--⑦-|
54
④④④④ |--①-|
口口口口 |--②-|
①③③① |--③-|
②口口② |--④-|
55
口口口口 |----|
①③②① |----|
口口口口 |①---|
口口口口 |②-③-|
56
口⑥⑦口 |①-②-|
⑤口口⑤ |③-④-|
口②①口 |--⑤-|
口④③口 |⑥-⑦-|
57
口⑦⑦口 |--①-|
⑥口口口 |②-③-|
口②①⑤ |④-⑤-|
④口③口 |⑥-⑦-|
58
口口口口 |--①-|
口⑤⑥① |②-③-|
②口口口 |④---|
口④④③ |⑤-⑥-|
59
②③口① |①---|
④⑤口口 |②-③-|
⑥⑦口口 |④-⑤-|
口口口口 |⑥-⑦-|
60
口④口⑤ |①-②-|
③口口口 |--③-|
口口口口 |--④-|
①②口口 |--⑤-|
61
口口①口 |①-②-|
⑧口③② |③-④-|
口口⑤④ |⑤-⑥-|
口口⑦⑥ |⑦-⑧-|
62
口②④③ |--①-|
口口①⑤ |--②-|
口口口口 |--③-|
口口口口 |④-⑤-|
63
口口口口 |----|
口①①口 |----|
口①①口 |----|
口口口口 |--①-|
64
口口口口 |----|
①口口口 |①---|
②口口口 |②---|
③口口口 |③---|
65
口口口① |①---|
口口口② |②---|
口口口③ |③---|
口口口④ |④---|
66
口口口口 |①---|
①⑥口口 |②---|
②④⑤口 |③-④-|
③口口口 |⑤-⑥-|
67
口②①① |①---|
口口③口 |②-③-|
口④口⑦ |④-⑤-|
⑥口⑤口 |⑥-⑦-|
68
②口口② |①-②-|
①④④口 |--③-|
口③③口 |----|
口口口口 |--④-|
69
口口口口 |----|
口口口口 |----|
口①①口 |----|
口口口口 |--①-|
70
①口口① |----|
口口口口 |----|
口口口口 |----|
口口口口 |--①-|
71
口口口口 |----|
①口口口 |①---|
②口口口 |②---|
③口口口 |③---|
72
口口口① |①---|
口口口② |②---|
口口口③ |③---|
口口口④ |④---|
73
口口口口 |①---|
口②口④ |②---|
①口③口 |③---|
口口口口 |④---|
74
口口口口 |①---|
④口②口 |②---|
口③口① |③---|
口口口口 |④---|
75
①口口口 |①---|
口②④③ |②---|
口口⑥⑤ |③-④-|
口口口口 |⑤-⑥-|
76
口①②口 |--①-|
口③口口 |②-③-|
口口口口 |--④-|
口④⑤口 |⑤---|
77
①④③口 |①---|
②⑥⑤口 |②---|
口口口口 |③-④-|
口口口口 |⑤-⑥-|
78
③口口③ |--①-|
⑦口⑥⑦ |②-③-|
口⑤④口 |④-⑤-|
口②①口 |⑥-⑦-|
79
③⑥⑥③ |--①-|
口口口口 |②-③-|
口⑤④口 |--④-|
口②①口 |⑤-⑥-|
80
③口口③ |--①-|
口⑤④口 |②-③-|
口口⑥口 |--④-|
口②①口 |⑤-⑥-|
81
口口口口 |①---|
②口口① |②---|
口口口口 |③---|
④口口③ |④---|
82
②口口① |①---|
口口口口 |②---|
④口口③ |③---|
口口口口 |④---|
83
口口口口 |①---|
口口口口 |----|
口口口口 |----|
口①①口 |----|
84
口口口口 |----|
口①①口 |--①-|
口①①口 |----|
口口口口 |----|
85
口口口口 |----|
口口口口 |----|
口口口口 |----|
口口口口 |----|

accuracy: 99.5%
最終更新:2023年06月29日 16:59