アットウィキロゴ
ハッピーウェディング前ソング
ヤバイTシャツ屋さん

EXTREME

Level: 9.0
BPM: 183
Notes: 649

1
口口口口 |----|
口口口口 |----|
口口口口 |----|
口口口口 |----|
2
口口口口 |①---|
口④①⑤ |②---|
口③②⑥ |③---|
口口口口 |④-⑤⑥|
3
口⑤口② |①---|
口口口口 |②---|
口④③口 |③-④-|
口口口① |--⑤-|
4
④口口③ |--①-|
口②①口 |②---|
口口口口 |③---|
口口口口 |④---|
5
口①口口 |①---|
口口⑤② |②---|
③口口口 |③-④-|
口④口⑥ |⑤-⑥-|
6
⑥口口⑥ |--①-|
口③④⑤ |②---|
口①②口 |③-④-|
口口口口 |⑤-⑥-|
7
⑥口口⑥ |--①-|
口口⑤口 |②-③-|
③④②③ |--④-|
口①口口 |⑤-⑥-|
8
⑥⑤④口 |--①-|
③口口③ |②-③-|
口口②口 |--④-|
口①口口 |⑤-⑥-|
9
口⑥口⑧ |①-②-|
④口②口 |③-④-|
⑤③⑦① |⑤-⑥-|
口口口口 |⑦-⑧-|
10
④口②口 |①-②-|
口③口口 |③-④-|
口口⑦① |⑤-⑥-|
⑧⑤口⑥ |⑦-⑧-|
11
口④口口 |①-②-|
③口①口 |③-④-|
口②口口
口口口口

口口⑤口
口⑧⑨口
口口⑥口 |⑤-⑥⑦|
口口⑦口 |--⑧⑨|
12
②口⑤⑧ |①-②-|
③口口① |③-④-|
口④⑥⑧ |⑤-⑥⑦|
口口⑦口 |--⑧-|
13
①⑤④⑥ |--①-|
③⑤④② |--②-|
①口口⑥ |③-④-|
③口口② |⑤-⑥-|
14
①⑤⑥口 |①--②|
④⑦口④ |③-④-|
①③②口 |--⑤-|
口②③口 |⑥-⑦-|
15
口⑥口口 |①-②-|
⑤⑦①口 |③-④-|
④口②口 |⑤---|
口③口口 |⑥-⑦-|
16
⑤口口④ |①-②-|
口口口① |③-④-|
口口②口 |--⑤-|
⑥口③口 |--⑥-|
17
口口口口 |①-②-|
⑤⑥⑦⑧ |③-④-|
④③②① |⑤-⑥-|
口口口口 |⑦-⑧-|
18
④口②① |①-②-|
口口⑥口 |③-④-|
③口口口 |--⑤-|
口口⑦⑤ |⑥-⑦-|
19
口③⑤口 |①-②-|
②⑨⑧口 |③-④-|
口①⑥④ |⑤-⑥⑦|
口口⑦口 |--⑧⑨|
20
口③口② |①-②-|
①口⑧⑦ |③-④⑤|
口⑥⑤④ |⑥-⑦⑧|
⑨口口⑨ |--⑨-|
21
④②③⑤ |--①-|
口④⑤⑥ |②-③-|
②口⑥③ |④-⑤-|
口①①口 |--⑥-|
22
口④④⑤ |①-②-|
①口口口 |③-④-|
口①口⑥ |--⑤-|
③③②② |--⑥-|
23
⑤口④口 |①-②-|
③⑥口口 |③-④-|
⑦②①口 |--⑤-|
口口口口 |⑥-⑦-|
24
口口口口 |①-②-|
⑤⑥②③ |③-④-|
口①口④ |--⑤-|
口口⑦口 |⑥-⑦-|
25
③口口口 |①-②-|
口⑦④口 |③---|
口⑤②口 |④-⑤-|
口口⑥① |⑥-⑦-|
26
口①口④ |----|
口⑥⑤口 |①-②③|
口③②口 |④-⑤-|
口口⑦口 |⑥-⑦-|
27
①口④④ |①---|
口口口口 |--②-|
口口口④ |③---|
②③口口 |④---|
28
④④口口 |①---|
口口①口 |--②-|
④口口口 |③---|
口口③② |④---|
29
⑤口④④ |①---|
口①口口 |--②-|
口口口④ |③---|
口②③口 |④-⑤-|
30
④④口⑤ |--①-|
口①②口 |②---|
④口口口 |③---|
口③口口 |④-⑤-|
31
口口①口 |--①-|
⑤口③口 |--②-|
口口口口 |③-④-|
口⑥④② |⑤-⑥-|
32
⑤口④⑤ |①-②-|
口④④① |③-④-|
③④④⑥ |--⑤-|
②口口口 |--⑥-|
33
口口口口 |--①-|
⑦口口⑥ |②-③-|
口⑤④口 |④-⑤-|
①②③口 |⑥-⑦-|
34
口②口① |①-②-|
口⑥③口 |③-④-|
口⑧⑦口 |⑤-⑥-|
口④口⑤ |⑦-⑧-|
35
①①口④ |--①-|
①口口口 |--②-|
口口口③ |--③-|
口②③③ |--④-|
36
④①①口 |--①-|
口①③② |--②-|
口③③口 |--③-|
口口口口 |--④-|
37
口口③③ |--①-|
④口口③ |--②-|
①口口口 |--③-|
①①口② |--④-|
38
口口口口 |--①-|
口①②口 |--②-|
口①①口 |--③-|
⑤④③口 |④-⑤-|
39
①②③④ |①---|
口口口口 |②-③-|
①口⑤④ |④---|
口⑥口口 |⑤-⑥-|
40
①口③④ |①---|
口②口口 |②-③-|
①口口④ |④---|
口⑥⑤口 |⑤-⑥-|
41
口⑥⑤④ |①---|
①②③④ |②-③-|
①口口口 |④---|
口口口口 |⑤-⑥-|
42
⑥口口⑤ |①-②③|
口④③口 |④⑤⑥⑦|
口②⑦①
口口口口

口⑫口口
口口口⑪
⑩口口⑬ |⑧⑨⑩⑪|
⑭⑧⑨⑮ |⑫⑬⑭⑮|
43
①口②口 |----|
③①①口 |①-②-|
口①⑥口 |③-④-|
口④口⑤ |⑤-⑥-|
44
②③口口 |①-②-|
③②口① |--③-|
口口口口 |--④-|
口④⑤⑥ |⑤-⑥-|
45
⑧④⑧⑤ |①-②-|
③口①口 |③-④-|
口②⑥口 |⑤-⑥-|
口口⑦口 |⑦-⑧-|
46
口口口② |--①-|
①口口口 |--②-|
口②③① |--③-|
口④⑤口 |④-⑤-|
47
⑥①②⑦ |①②③④|
口③④口 |⑤-⑥-|
口⑤口⑧ |⑦-⑧-|
口⑨口口 |--⑨-|
48
⑤⑦①④ |--①②|
口②口口 |③-④-|
口⑥③口 |⑤-⑥-|
口口口口 |--⑦-|
49
口口口⑦ |--①-|
口④①② |②-③-|
⑤口口③ |④-⑤-|
口⑥口口 |⑥-⑦-|
50
口③④口 |--①-|
②口口⑤ |②-③-|
⑦①口⑥ |④-⑤-|
口口口口 |⑥-⑦-|
51
①③口口 |①---|
⑥口②④ |②-③-|
⑦②②口 |④-⑤-|
口口⑤② |⑥-⑦-|
52
口口③② |①-②-|
口口口口 |--③-|
口口②③ |--④-|
①④⑤⑥ |⑤-⑥-|
53
⑧①口口 |①-②-|
⑤口②⑧ |③-④-|
口③④口 |⑤-⑥-|
口⑦⑥⑧ |⑦-⑧-|
54
④③②④ |--①-|
②①②口 |--②-|
①③④① |--③-|
口口③口 |--④-|
55
口③③口 |----|
②②①① |----|
口口口口 |①---|
②口口① |②-③-|
56
①⑦口① |①-②-|
⑤⑥口口 |③-④-|
③②②③ |--⑤-|
口④④口 |⑥-⑦-|
57
口口⑦① |--①-|
口口②口 |②-③-|
⑥口口③ |④-⑤-|
口⑤④口 |⑥-⑦-|
58
口口口口 |--①-|
①口口③ |②-③-|
⑤②④口 |④---|
⑥口口口 |⑤-⑥-|
59
①口①口 |①---|
口⑥口口 |②-③-|
⑤②⑦口 |④-⑤-|
口④③口 |⑥-⑦-|
60
③②③② |①-②-|
口口口① |--③-|
口口口口
口口口口

口口口口
口口口⑤
口④口口 |--④-|
口口口口 |--⑤-|
61
④③⑥① |①-②-|
⑧⑤②⑦ |③-④-|
口口口口 |⑤-⑥-|
口口口口 |⑦-⑧-|
62
口口口② |--①-|
口③口口 |--②-|
口口④口 |--③-|
①⑤口口 |④-⑤-|
63
⑤口口⑤ |①---|
口口口口 |②---|
②口口③ |③---|
口④口① |④-⑤-|
64
口②①口 |①---|
口口口口 |②---|
口口③口 |③---|
口④口口 |④---|
65
口⑥口⑧ |①-②-|
④口②口 |③-④-|
⑤③⑦① |⑤-⑥-|
口口口口 |⑦-⑧-|
66
口口⑤口 |①-②-|
④口②口 |③-④-|
⑧③⑥① |⑤-⑥-|
口⑦口口 |⑦-⑧-|
67
口①口① |①---|
④⑤③口 |②-③-|
口②⑥口 |④-⑤-|
口口口⑦ |⑥-⑦-|
68
②⑤②③ |①-②-|
③⑤⑤口 |--③-|
口⑤⑤口 |----|
口④①口 |④-⑤-|
69
口口⑤口 |--①-|
口⑤⑤口 |②---|
③⑤⑤① |③---|
④口②口 |④-⑤-|
70
⑤②口⑤ |--①-|
①口口口 |②---|
⑤口口⑤ |③---|
口④③口 |④-⑤-|
71
口①口口 |----|
口③②④ |①-②-|
口⑤口口 |③-④-|
口口口⑥ |⑤-⑥-|
72
⑦口⑧口 |①-②-|
③⑤⑥口 |③-④-|
口口④口 |⑤-⑥-|
口①②口 |⑦-⑧-|
73
口②口④ |①-②-|
⑧口⑥口 |③-④-|
①⑦③⑤ |⑤-⑥-|
口口口口 |⑦-⑧-|
74
口口口口 |①-②-|
⑧②⑥④ |③-④-|
口⑦③口 |⑤-⑥-|
①口口⑤ |⑦-⑧-|
75
口口⑥口 |①---|
⑤④③口 |②---|
口口口口 |③-④-|
②口①口 |⑤-⑥-|
76
口口口⑥ |--①-|
口口口口 |②-③-|
口④⑤口 |④-⑤-|
口①②③ |⑥---|
77
①口⑤④ |①---|
口口⑥③ |②---|
②口口口 |③-④-|
口口口口 |⑤-⑥-|
78
⑥口口⑥ |--①-|
①⑤口口 |②---|
口口④口 |③-④-|
口②口③ |⑤-⑥-|
79
⑥口口⑥ |--①-|
③口⑤③ |②-③-|
口②口口 |--④-|
口①④口 |⑤-⑥-|
80
口口口口 |--①-|
③④口③ |②-③-|
口口②口 |--④-|
⑥①⑤口 |⑤-⑥-|
81
①口③口 |①-②-|
口⑦口⑤ |③-④-|
⑧②⑥④ |⑤-⑥-|
口口口口 |⑦-⑧-|
82
①口③口 |①-②-|
口⑦口⑤ |③-④-|
⑧②⑥④ |⑤-⑥-|
口口口口 |⑦-⑧-|
83
①口口① |①---|
口②①口 |----|
口口③口 |--②③|
口④口口 |④---|
84
口①口口 |----|
口口①口 |--①-|
口口口① |----|
口口口口 |----|
85
口口口口 |----|
口①口口 |----|
口①①口 |----|
①口口口 |--①-|

accuracy: 99.5%
最終更新:2023年06月29日 16:59