アットウィキロゴ
フレーフレーわたし
足立佳奈

BASIC

Level: 1
BPM: 87
Notes: 58

1
口口口口 |----|
口口口口 |----|
口口口口 |----|
口口口口 |----|
2
口口口口 |①---|
口口口口 |----|
口口口口 |②---|
口口②① |----|
3
口口口口 |①---|
口口口口 |----|
口口口口 |②---|
②①口口 |----|
4
口口口口 |①---|
口口口口 |----|
口①口口 |----|
口口口口 |----|
5
口口口口 |①---|
口口口口 |----|
口口①口 |----|
口口口口 |----|
6
口口口口 |----|
口口口口 |----|
口口口口 |----|
口口口口 |----|
7
口口口口 |①---|
口口口① |----|
口口口口 |----|
口口口口 |----|
8
口口口① |①---|
口口口口 |----|
口口口口 |----|
口口口口 |----|
9
口口①口 |①---|
口口口口 |----|
口口口口 |----|
口口口口 |----|
10
口口口口 |①---|
口口①口 |----|
口口口口 |----|
口口口口 |----|
11
口口口口 |①---|
口①口口 |----|
口口口口 |----|
口口口口 |----|
12
口①口口 |①---|
口口口口 |----|
口口口口 |----|
口口口口 |----|
13
①口口口 |①---|
口口口口 |----|
口口口口 |----|
口口口口 |----|
14
口口口口 |①---|
①口口口 |----|
口口口口 |----|
口口口口 |----|
15
①②口口 |①---|
口口口口 |----|
口口口口 |②---|
口口口口 |----|
16
口口①② |①---|
口口口口 |----|
口口口口 |②---|
口口口口 |----|
17
口口口口 |①---|
口口②① |----|
口口口口 |②---|
口口口口 |----|
18
口口口口 |①---|
②①口口 |----|
口口口口 |②---|
口口口口 |----|
19
口口口口 |①---|
口口口口 |----|
口①口口 |----|
口口口口 |----|
20
口口口口 |①---|
口口口口 |----|
口口①口 |----|
口口口口 |----|
21
口口口口 |①---|
口口②① |----|
口口口口 |②---|
口口口口 |----|
22
口口口口 |①---|
②①口口 |----|
口口口口 |②---|
口口口口 |----|
23
口①口口 |①---|
口口口口 |----|
口口口口 |----|
口口口口 |----|
24
口口①口 |①---|
口口口口 |----|
口口口口 |----|
口口口口 |----|
25
口口口口 |①---|
口①口口 |----|
口口口口 |----|
口口口口 |----|
26
口口口口 |①---|
口口①口 |----|
口口口口 |----|
口口口口 |----|
27
口口口口 |----|
口口口口 |----|
口口口口 |----|
口口口口 |----|
28
口①①口 |①---|
口口口口 |----|
口口口口
口口口口
29
口口口口 |----|
口口口口 |----|
口口口口 |----|
口口口口 |----|
30
口口①口 |①---|
口口②口 |②---|
口口③口 |③---|
口口口口 |----|
31
口③口口 |①---|
口②口口 |②---|
口①口口 |③---|
口口口口 |----|
32
①口口口 |①---|
口口口口 |----|
口口口口 |----|
口口口口 |----|
33
口口口口 |①---|
①口口口 |----|
口口口口 |----|
口口口口 |----|
34
口口口口 |①---|
口①口口 |②---|
口②口口 |③---|
口③口口 |----|
35
口口口口 |①---|
口口③口 |②---|
口口②口 |③---|
口口①口 |----|
36
口①①口 |①---|
口口口口 |----|
口口口口 |----|
口口口口 |----|
37
①口口① |①---|
②口口② |②---|
③口口③ |③---|
口口口口 |----|
38
口口口口 |①---|
口口②口 |②---|
口口①口 |----|
口口口口 |----|

accuracy: 99.5%
最終更新:2023年03月11日 11:50