アットウィキロゴ
フレーフレーわたし
足立佳奈

ADVANCED

Level: 3
BPM: 87
Notes: 142

1
口口口口 |----|
口口口口 |----|
口口口口 |----|
口口口口 |----|
2
②口口① |①---|
口口口口 |②---|
口③③口 |③---|
口口口口 |----|
3
②口口① |①---|
口口口口 |②---|
口③③口 |③---|
口口口口 |----|
4
口口口口 |①---|
②口口① |----|
口口口口 |②---|
口口口口 |----|
5
口①①口 |①---|
口②②口 |②---|
口口口口 |----|
口口口口 |----|
6
口口口口 |----|
口口口口 |----|
口口口口 |----|
口口口口 |----|
7
口口口口 |①---|
口口口口 |②---|
④口口② |③---|
③口口① |④---|
8
口口口口 |①---|
口口口口 |②---|
口④②口 |③---|
口③①口 |④---|
9
④口口② |①---|
③口口① |②---|
口口口口 |③---|
口口口口 |④---|
10
口④②口 |①---|
口③①口 |②---|
口口口口 |③---|
口口口口 |④---|
11
口口口口 |①---|
口口口口 |②---|
④口口② |③---|
③口口① |④---|
12
口口口口 |①---|
口口口口 |②---|
口④②口 |③---|
口③①口 |④---|
13
④口口② |①---|
③口口① |②---|
口口口口 |③---|
口口口口 |④---|
14
口②②口 |①---|
口①①口 |----|
口口口口 |②---|
口口口口 |----|
15
②口口① |①---|
口口口口 |②---|
口③③口 |③---|
口口口口 |----|
16
口口口口 |①---|
②口口① |②---|
口口口口 |③---|
口③③口 |----|
17
口口口口 |①---|
口口口口 |----|
口②①口 |②---|
口口口口 |----|
18
口口口口 |①---|
口口口口 |----|
②口口① |②---|
口口口口 |----|
19
口口口口 |①---|
②②①① |----|
口口口口 |②---|
口口口口 |----|
20
②②①① |①---|
口口口口 |----|
口口口口 |②---|
口口口口 |----|
21
口口口口 |①---|
口口①口 |②---|
口口②口 |③---|
口口③口 |----|
22
口口口口 |①---|
口③口口 |②---|
口②口口 |③---|
口①口口 |----|
23
③②①口 |①---|
口口口口 |②---|
口口口口 |③---|
口口口口 |----|
24
口口口口 |①---|
口①②③ |②---|
口口口口 |③---|
口口口口 |----|
25
口口口口 |①---|
口口口口 |----|
口①①口 |②---|
口②②口 |----|
26
口口口口 |①---|
②口口② |----|
①口口① |②---|
口口口口 |----|
27
①口口① |①---|
口③口口 |----|
口口②口 |②---|
口口口口 |③---|
28
①口口① |①---|
口口口口 |----|
口口口口
口口口口
29
口口口口 |----|
口口口口 |----|
口口口口 |①---|
②口口① |②---|
30
②口口① |①---|
口口口口 |②---|
口①②口 |③---|
口③③口 |----|
31
②口口① |①---|
口口口口 |②---|
口①②口 |③---|
口③③口 |----|
32
口口口口 |①---|
④口口② |②---|
③口口① |③---|
口口口口 |④---|
33
③口口③ |①---|
口②②口 |②---|
口①①口 |③---|
口口口口 |----|
34
②口口① |①---|
口口口口 |②---|
口①②口 |③---|
口③③口 |----|
35
②口口① |①---|
口口口口 |②---|
口①②口 |③---|
口③③口 |----|
36
口口口口 |①---|
④口口② |②---|
③口口① |③---|
口口口口 |④---|
37
③④④③ |①---|
口②②口 |②---|
口①①口 |③---|
口口口口 |④---|
38
口口口口 |①---|
口②口口 |②---|
口口①口 |----|
口口口口 |----|

accuracy: 99.5%
最終更新:2023年03月11日 11:58