アットウィキロゴ
フレーフレーわたし
足立佳奈

EXTREME

Level: 5
BPM: 87
Notes: 262

1
口口口口 |----|
口口口口 |----|
口口口口 |----|
口口口口 |----|
2
②口口① |①---|
口②①口 |②---|
口口口口 |③---|
口③③口 |----|
3
②口口① |①---|
口②①口 |②---|
口口口口 |③---|
④③③⑤ |--④⑤|
4
⑤口口口 |①--②|
口口④口 |③④-⑤|
①③②口
口口口口

口口口口
口口口⑥
⑦口口口 |-⑥-⑦|
口口⑧口 |--⑧-|
5
⑥口口⑥ |①-②③|
①口⑤④ |-④⑤-|
②③口口 |----|
口口口口 |⑥---|
6
口口口口 |----|
口口口口 |----|
口口口口 |----|
口口口口 |----|
7
③口口口 |①---|
口④口② |②---|
⑤口口口 |③-④-|
口⑥口① |⑤-⑥-|
8
口口口① |①---|
⑤④口口 |②-③-|
口口③口 |④---|
口②口口 |⑤---|
9
口口③口 |①---|
⑥口口② |②-③-|
口⑤口口 |--④-|
④口口① |⑤-⑥-|
10
口①①口 |①---|
口口口口 |②---|
口口口口
口②②口

口④⑥口
③口口⑤
口口口口 |③-④-|
口口口口 |⑤-⑥-|
11
口口口③ |①---|
②口④口 |②---|
口口口⑤ |③-④-|
①口⑥口 |⑤-⑥-|
12
①口口口 |①---|
口口口口 |②-③-|
口③口口
口口②口

⑤口口口
口口④口
口口口口 |④---|
口口口口 |⑤---|
13
口口③口 |①---|
④口口② |②-③-|
口⑤口口 |--④-|
⑥口口① |⑤-⑥-|
14
口口口口 |①---|
③①①③ |②---|
口口口口 |③---|
口②②口 |----|
15
口口口① |①---|
口口①口
口口口口
口口口口

②口口口
口②③口 |②-③④|
口④⑥口 |⑤---|
口口⑤口 |--⑥-|
16
⑤口④口 |①-②-|
口③口② |③-④-|
①口⑦口 |⑤---|
口口⑥口 |⑥-⑦-|
17
口③②口 |①-②-|
口④①口 |③-④-|
口口口口
口口口口

口口口口
口口⑥口
口⑦口口 |--⑤-|
口⑤口口 |--⑥⑦|
18
口口⑤口 |①-②③|
④②口口 |-④-⑤|
口口③口
口口①口

口口口口
口口口口
口口⑦口 |----|
口⑥口口 |--⑥⑦|
19
②口口口 |①---|
口①③口 |②-③④|
口④⑦口 |⑤---|
口⑥⑤口 |--⑥⑦|
20
②口口口 |①---|
⑦①③口 |②-③④|
⑥④口口 |⑤---|
口口⑤口 |⑥-⑦-|
21
①⑤⑤④ |①-②-|
口口⑥③ |③-④-|
口⑦口② |--⑤-|
口口口口 |--⑥⑦|
22
口口口口 |①-②③|
②口口④ |--④⑤|
口⑤③口
口口①口

口口口口
口口口口
口口口口 |----|
口⑦⑥口 |--⑥⑦|
23
⑥口口口 |①-②③|
④口⑤口 |④-⑤-|
②口①③ |⑥---|
口⑧⑦口 |--⑦⑧|
24
口口口⑤ |①②③④|
⑥④③口 |⑤-⑥-|
口②①口
口口口口

⑨口口⑨
口口口口
口⑧口⑦ |⑦---|
口口口口 |⑧-⑨-|
25
口口口⑥ |----|
②口⑤② |①-②-|
口④口口 |③-④-|
③口①口 |⑤-⑥-|
26
①口口口 |①---|
①口口⑤ |--②-③-|
口②口④ |④---|
口口③口 |⑤---|
27
②⑥口口 |①---|
①口⑤口 |②---|
口④口口 |③-④-|
口口③口 |⑤-⑥-|
28
①口口① |①---|
口口口口 |----|
口口口口
口口口口
29
①口口① |----|
口口口口 |----|
口口口口 |①---|
②口口② |②---|
30
口口口① |①---|
口口①口
口①口口
口口口口

②口口口
口②③口 |②-③④|
口④②口 |⑤---|
口口⑤口 |----|
31
口口口① |①---|
口口①口
口①口口
口口口口

②口口口
口②③口 |②-③④|
口④②⑥ |⑤---|
口口⑤口 |--⑥-|
32
①口口口 |①--②|
口口⑥口 |③④⑤⑥|
口⑤④口
口③②口

⑦口口口
口口口⑧
口口口口 |-⑦-⑧|
口⑨⑩口 |--⑨⑩|
33
④⑤口口 |①-②③|
口口③② |-④⑤-|
口①口口
口口口口

口口口口
口⑥⑥口
⑦口口⑦ |--⑥-|
⑧口口⑧ |⑦-⑧-|
34
口口口① |①---|
口口①口
口①口口
口口口口

②口口口
口②③口 |②-③④|
口④②口 |⑤---|
口口⑤口 |----|
35
口口口① |①---|
口口①口
口①口口
口口口口

②口口口
口②③口 |②-③④|
口④②口 |⑤---|
⑥口⑤⑦ |--⑥⑦|
36
⑤口口口 |①--②|
口口④口 |③④-⑤|
①③②口
口口口口

口口口口
口口口⑥
⑦口口口 |-⑥-⑦|
口口⑧口 |--⑧-|
37
①口口① |①-②③|
口口⑤④ |-④⑤-|
②③口口
口口口口

⑥口口⑥
口口口口
口口口口 |----|
口口口口 |⑥---|
38
口口口口 |①---|
①口口② |②---|
①口②② |----|
①口②② |----|

accuracy: 99.5%
最終更新:2023年03月11日 12:23