アットウィキロゴ
まぼろしウインク
A応P

BASIC

Level: 3
BPM: 141
Notes: 147

1
口口口口 |----|
口口口口 |----|
口口口口 |----|
口口口口 |----|
2
口口口口 |----|
口口口口 |----|
口口口口 |----|
口口口口 |----|
3
口口口口 |①---|
口口口口 |----|
口口口口 |----|
口①①口 |----|
4
口口口口 |①---|
口口口口 |----|
口②①口 |②---|
口口口口 |----|
5
口口口口 |①---|
②②①① |----|
口口口口 |②---|
口口口口 |----|
6
口口①口 |①---|
口口②口 |②---|
口口③口 |③---|
口口口口 |----|
7
口口口口 |①---|
①②口口 |----|
口口口口 |②---|
口口口口 |----|
8
口口口口 |①---|
口口①② |----|
口口口口 |②---|
口口口口 |----|
9
口口口口 |①---|
口②②口 |----|
口①①口 |②---|
口口口口 |----|
10
口②①口 |①---|
口④③口 |②---|
口口口口 |③---|
口口口口 |④---|
11
口口口口 |①---|
口口口口 |----|
口①①口 |----|
口口口口 |----|
12
口口口口 |①---|
口口口口 |----|
口口口口 |----|
口①①口 |----|
13
口口口口 |①---|
口口口口 |----|
口①①口 |----|
口口口口 |----|
14
口口口口 |①---|
口①①口 |----|
口口口口 |----|
口口口口 |----|
15
口口口口 |①---|
口口口口 |----|
口①①口 |----|
口口口口 |----|
16
口口口口 |①---|
口口口口 |----|
口口口口 |----|
口①①口 |----|
17
口口口口 |①---|
口口口口 |----|
口①①口 |----|
口口口口 |----|
18
口口口口 |①---|
口①①口 |----|
口口口口 |----|
口口口口 |----|
19
口口口① |①---|
口口口② |----|
口口口口 |②---|
口口口口 |----|
20
口口口口 |①---|
口口口口 |----|
口口口① |②---|
口口口② |----|
21
口口口口 |①---|
口口口口 |----|
口①①口 |----|
口口口口 |----|
22
口口口口 |①---|
②口口① |----|
口②①口 |②---|
口口口口 |----|
23
①口口口 |①---|
②口口口 |----|
口口口口 |②---|
口口口口 |----|
24
口口口口 |①---|
口口口口 |----|
①口口口 |②---|
②口口口 |----|
25
口口口口 |①---|
口口口口 |----|
口①①口 |----|
口口口口 |----|
26
口②②口 |①---|
口②②口 |----|
口①①口 |②---|
口口口口 |----|
27
口口口口 |①---|
口口②① |----|
口口口口 |②---|
口口口口 |----|
28
口口口口 |①---|
②①口口 |----|
口口口口 |②---|
口口口口 |----|
29
①②口口 |①---|
口口口口 |----|
口口口口 |②---|
口口口口 |----|
30
口口①② |①---|
口口口口 |----|
口口口口 |②---|
口口口口 |----|
31
①②口口 |①---|
口口口口 |----|
口口口口 |②---|
口口口口 |----|
32
口口①② |①---|
口口口口 |----|
口口口口 |②---|
口口口口 |----|
33
口①①口 |①---|
口②②口 |----|
口口口口 |②---|
口口口口 |----|
34
口口口口 |①---|
口口口口 |----|
口①①口 |----|
口口口口 |----|
35
口口口口 |----|
口口口口 |----|
口口口口 |----|
口口口口 |----|
36
口口口口 |①---|
②②①① |----|
口口口口 |②---|
口口口口 |----|
37
口口①口 |①---|
口口②口 |②---|
口口③口 |③---|
口口口口 |----|
38
口口口口 |①---|
①②口口 |----|
口口口口 |②---|
口口口口 |----|
39
口口①口 |①---|
口口②口 |②---|
口口③口 |③---|
口口口口 |----|
40
口口口口 |①---|
①①②② |----|
口口口口 |②---|
口口口口 |----|
41
口①口口 |①---|
口②口口 |②---|
口③口口 |③---|
口口口口 |----|
42
口口口口 |①---|
口口②① |----|
口口口口 |②---|
口口口口 |----|
43
口①口口 |①---|
口②口口 |②---|
口③口口 |③---|
口口口口 |----|
44
口口口口 |①---|
②②①① |----|
口口口口 |②---|
口口口口 |----|
45
口①①口 |①---|
口②②口 |②---|
口③③口 |③---|
口口口口 |----|
46
口口口口 |①---|
口口②① |----|
口口口口 |②---|
口口口口 |----|
47
口①口口 |①---|
口②口口 |②---|
口③口口 |③---|
口④口口 |④---|
48
口口①口 |①---|
口口②口 |②---|
口口③口 |③---|
口口④口 |④---|
49
口①口口 |①---|
口②口口 |②---|
口③口口 |③---|
口④口口 |④---|
50
口口①口 |①---|
口口②口 |②---|
口口③口 |③---|
口口④口 |④---|
51
口①口口 |①---|
口②口口 |②---|
口③口口 |③---|
口④口口 |④---|
52
口口口口 |①---|
口②②口 |----|
①口口① |②---|
口口口口 |----|
53
①口口① |①---|
②④④② |②---|
③口口③ |③---|
口口口口 |--④-|

accuracy: 99.5%
最終更新:2023年06月04日 03:50