アットウィキロゴ
まぼろしウインク
A応P

ADVANCED

Level: 6
BPM: 141
Notes: 375

1
口口口口 |----|
口口口口 |----|
口口口口 |----|
口口口口 |----|
2
口口口口 |----|
口口口口 |----|
口口口口 |----|
口口口口 |----|
3
口①①口 |①---|
口口口口 |----|
口口口口 |----|
口口口口 |----|
4
口口口口 |①---|
口②②口 |②---|
③④⑤⑥ |③-④-|
口①①口 |⑤-⑥-|
5
①②①② |①---|
口①②口 |----|
口口口口 |②---|
口口口口 |----|
6
口⑥口口 |①-②-|
①口口② |③-④-|
③⑤⑤④ |⑤---|
口口口口 |--⑥-|
7
口⑧⑦口 |①-②-|
口⑥①口 |③-④-|
口②⑤口 |⑤-⑥-|
口④③口 |⑦-⑧-|
8
口口口口 |①-②-|
⑥口①⑥ |③-④-|
口②⑤口 |⑤---|
⑦④③⑦ |⑥-⑦-|
9
②②②② |----|
口口口口 |①---|
③口口口 |②---|
口①①口 |--③-|
10
口口口口 |①-②-|
口④④口 |③-④-|
口①②③
口口口口

口口口口
⑥口口⑥
口⑦⑦口 |⑤---|
口⑤⑤口 |⑥-⑦-|
11
口口口① |①---|
④②口口 |②---|
口⑤口③ |③---|
口口口口 |④-⑤-|
12
口②①口 |--①-|
口④③口 |②-③-|
口⑥⑤口 |④-⑤-|
口口口口 |⑥---|
13
①口口口 |①---|
口口②④ |②---|
③口⑤口 |③---|
口口口口 |④-⑤-|
14
口①②口 |--①-|
口③④口 |②-③-|
口⑤⑥口 |④-⑤-|
口口口口 |⑥---|
15
口口口① |①---|
④②口口 |②---|
口⑤口③ |③---|
口口口口 |④-⑤-|
16
口②①口 |--①-|
口④③口 |②-③-|
口⑥⑤口 |④-⑤-|
口口口口 |⑥---|
17
①口口口 |①---|
口口②④ |②---|
③口⑤口 |③---|
口口口口 |④-⑤-|
18
口①②口 |--①-|
口③④口 |②-③-|
口⑤⑥口 |④-⑤-|
口口口口 |⑥---|
19
口口口① |①-②-|
⑤⑤②⑥ |③-④-|
口③⑦口 |⑤---|
④口口口 |⑥-⑦-|
20
口①①口 |①---|
口口口口 |②---|
②②口口
口口口口

口口口④
口口⑤口
口⑥③③ |③-④-|
口口口口 |⑤-⑥-|
21
口口口口 |----|
口口口口 |----|
口口口口 |----|
口口口口 |----|
22
口口口③ |①---|
口①口③ |②---|
①①口③ |③---|
口②②口 |----|
23
①口口⑤ |①-②-|
口②⑥口 |③-④-|
口⑦③口 |⑤-⑥-|
⑧口口④ |⑦-⑧-|
24
口①①口 |①---|
口口⑤④ |②---|
③③②② |③---|
口口口口 |④-⑤-|
25
口口口口 |--①-|
口口口口 |②---|
①②口口 |----|
口口口口 |----|
26
①口口口 |①---|
口②④口 |②---|
口口③③ |③---|
口口③③ |--④-|
27
口口口口 |①-②-|
口①口口 |③---|
口②③口
口口口口

口口口④
口口⑤口
口⑥口口 |--④-|
口口口口 |⑤-⑥-|
28
①口口口 |①-②-|
②④口③ |--③-|
口口口③ |----|
口口口口 |--④-|
29
口口口口 |①-②-|
口口①口 |③---|
④③②口 |--④-|
口⑤⑥口 |⑤-⑥-|
30
口口③口 |①-②-|
口④④② |③---|
口口口① |----|
口口口口 |--④-|
31
口③④口 |①---|
口口口⑤ |②---|
②①①② |--③-|
口口口口 |④-⑤-|
32
口⑤⑤口 |①-②-|
③③口口 |--③-|
口口口① |--④-|
④④②口 |--⑤-|
33
②口口② |①---|
口口口口 |--②-|
口①①口
口口口口

口口口口
口④④口
③⑤⑤③ |③--④|
口口口口 |--⑤-|
34
口口口口 |①---|
①口口① |----|
口口口口 |----|
口口口口 |----|
35
口口口口 |①---|
口②②口 |②---|
③④⑤⑥ |③-④-|
口①①口 |⑤-⑥-|
36
①②①② |①---|
口①②口 |②---|
③④③④ |③---|
口③④口 |④---|
37
⑥⑧口⑦ |①-②-|
①口口② |③-④-|
口⑤⑤口 |⑤-⑥-|
③口口④ |⑦-⑧-|
38
口⑧⑦口 |①-②-|
口⑥①口 |③-④-|
口②⑤口 |⑤-⑥-|
口④③口 |⑦-⑧-|
39
口口口⑥ |①-②-|
口口①口 |③-④-|
⑦②⑤口 |⑤-⑥-|
口④③口 |⑦---|
40
④③口③ |①---|
②口③口 |②---|
④①口① |③---|
②口①口 |④---|
41
⑥⑧口⑦ |①-②-|
①口口② |③-④-|
⑥⑤⑤⑦ |⑤-⑥-|
③口口④ |⑦-⑧-|
42
口⑧⑦口 |①-②-|
口⑥①口 |③-④-|
口②⑤口 |⑤-⑥-|
口④③口 |⑦-⑧-|
43
口口口口 |①-②-|
口口①口 |③-④-|
口②⑤口 |⑤---|
口④③口 |----|
44
口口口口 |①---|
口②口口 |②---|
口①口①
②口①口

④③口③
口口③口
口④口口 |③---|
口口口口 |④---|
45
口口口口 |①-②-|
①口口② |③-④-|
口口口口
③口口④

口⑥⑦口
⑧口口口
口⑤⑤口 |⑤-⑥-|
口口口口 |⑦-⑧-|
46
口口口口 |①-②-|
⑧①②③ |③-④-|
口口口口 |⑤-⑥-|
⑦⑥⑤④ |⑦-⑧-|
47
⑥④④⑥ |①-②-|
⑦①②③ |③-④-|
口⑤⑤口 |⑤---|
口口口口 |⑥-⑦-|
48
⑥④④⑥ |①-②-|
⑦①②③ |③-④-|
口⑤⑤口 |⑤---|
口口口口 |⑥-⑦-|
49
⑥④④⑥ |①-②-|
⑦①②③ |③-④-|
口⑤⑤口 |⑤---|
口口口口 |⑥-⑦-|
50
⑥④④⑥ |①-②-|
⑦①②③ |③-④-|
口⑤⑤口 |⑤---|
口口口口 |⑥-⑦-|
51
⑥④④⑥ |①-②-|
口①②③ |③-④-|
⑦⑤⑤⑦ |⑤---|
口口口口 |⑥-⑦-|
52
②②②② |----|
口口口口 |①---|
③口口口 |②---|
口①①口 |--③-|
53
口口口口 |①-②-|
口④④口 |③-④-|
口①②③
口口口口

口口口口
⑥口口⑥
口⑦⑦口 |⑤---|
口⑤⑤口 |⑥-⑦-|

accuracy: 99.5%
最終更新:2023年06月04日 03:58