アットウィキロゴ
まぼろしウインク
A応P

EXTREME

Level: 9.0
BPM: 141
Notes: 568

1
口口口口 |----|
口口口口 |----|
口口口口 |----|
口口口口 |----|
2
口口口口 |----|
口口口口 |----|
口口口口 |----|
口口口口 |----|
3
口①①口 |①---|
口②③④ |②---|
口①①口 |③---|
口口口口 |④---|
4
口⑦⑧口 |①②③④|
口⑤⑥口 |⑤⑥⑦⑧|
口③④口
口①②口

⑨口口⑨
⑩口口⑪
口口口口 |⑨-⑩-|
⑩⑫⑫⑪ |⑪-⑫-|
5
口口口② |①---|
口①口口 |②---|
口口口①
口口口口

④口口⑤
口口③口
③口口口 |③---|
口口口口 |④-⑤-|
6
⑦口⑧⑥ |①-②-|
⑤①⑤② |③-④-|
⑤③⑤④ |⑤-⑥-|
口口口口 |⑦-⑧-|
7
口②口⑧ |①-②-|
口⑥④口 |③-④-|
口口口口 |⑤-⑥-|
①⑤⑦③ |⑦-⑧-|
8
②④④口 |①-②-|
⑥口口⑥ |③-④-|
口①③口 |⑤---|
⑦⑤⑤⑦ |⑥-⑦-|
9
口①口口 |①---|
口口口口 |②---|
②②②①
口②口口

④④③③
口口③⑤
口口口口 |③---|
口口④④ |④-⑤-|
10
⑥④④⑥ |①-②-|
①⑦⑦口 |③-④-|
③口口② |⑤---|
口⑤⑤口 |⑥-⑦-|
11
口①口口 |①---|
①口口口 |②---|
口口口②
口口②口

④口口口
口口③口
③口口口 |③---|
口③⑤口 |④-⑤-|
12
口④口④ |--①-|
⑤口①口 |②-③-|
⑤②口⑥ |④-⑤-|
③口⑥口 |⑥---|
13
口口①口 |①---|
口口口① |②---|
②口口口
口②口口

口口口④
口③口口
口口口③ |③---|
口⑤③口 |④-⑤-|
14
口口⑩⑪ |--①-|
口①⑧⑨ |②-③-|
⑥⑦②口 |④⑤⑥⑦|
④⑤口③ |⑧⑨⑩⑪|
15
口①口口 |①---|
①口口口 |②---|
口口口②
口口②口

④口口口
口口③口
③口口口 |③---|
口③⑤口 |④-⑤-|
16
口④口④ |--①-|
⑤口①口 |②-③-|
⑤②口⑥ |④-⑤-|
③口⑥口 |⑥---|
17
口口①口 |①---|
口口口① |②---|
②口口口
口②口口

口口口④
口③口口
口口口③ |③---|
口⑤③口 |④-⑤-|
18
口④口④ |--①-|
⑤①⑤口 |②-③-|
口⑥②⑥ |④-⑤-|
口口口③ |⑥---|
19
口口口口 |①-②-|
口②口④ |③-④-|
①口③口
口口口口

⑤⑤口口
口口⑥口
⑥⑦口口 |⑤---|
口口口⑦ |⑥-⑦-|
20
⑥口①① |①---|
⑤口口口 |②---|
④口口口 |③-④-|
③②②口 |⑤-⑥-|
21
口口口口 |①-②③|
口②口③ |④⑤--|
口口①口
口④①⑤

⑦口⑥口
口口口口
⑨口⑧口 |⑥⑦⑧⑨|
口口口口 |----|
22
口①口口 |①---|
①①口口 |②---|
口②口②
口②②②

口④口③
⑥④⑤③
口口口口 |③-④-|
⑧口⑦口 |⑤⑥⑦⑧|
23
②口①⑤ |①-②-|
口④⑥③ |③-④-|
口⑦口口 |⑤-⑥-|
⑧口口口 |⑦-⑧-|
24
①①③③ |①---|
口④口口 |②---|
④口⑤口 |③---|
口②②⑤ |④-⑤-|
25
口⑤口⑥ |--①②|
②口①口 |③④--|
口⑦口⑧ |⑤⑥⑦⑧|
④口③口 |----|
26
①④口⑤ |①---|
④②⑥口 |②---|
口⑦③③ |③-④-|
⑧口③③ |⑤⑥⑦⑧|
27
①④①口 |①-②-|
④③⑤③ |③---|
②⑤②⑥ |--④-|
口口⑥口 |⑤-⑥-|
28
③口③口 |①-②-|
⑤①⑤① |--③-|
口⑥⑥口 |④-⑤-|
④②④② |--⑥-|
29
③①①② |①-②-|
③口口② |③---|
口口口口
口口口口

口口⑥口
口口口⑥
④口口⑤ |--④-|
口④⑤口 |⑤-⑥-|
30
①口⑥⑥ |①-②-|
⑤②口④ |③---|
⑤口③④ |④---|
口口口口 |⑤-⑥-|
31
口口口口 |①---|
口②②口 |②---|
口②②口
①①口口

口⑤⑤口
④口口口
④口口口 |--③-|
口③③口 |④-⑤-|
32
③⑤⑤④ |①-②-|
口④③① |--③-|
口②②① |--④-|
口口口口 |--⑤-|
33
④口口⑤ |①---|
口②②口 |--②-|
①口口① |③--④|
③口口③ |--⑤-|
34
口口口口 |①---|
①②③④ |②---|
①②③④ |③---|
口口口口 |④---|
35
口⑦⑧口 |①②③④|
口⑤⑥口 |⑤⑥⑦⑧|
口③④口
口①②口

⑨口口⑨
⑩口口⑪
口口口口 |⑨-⑩-|
⑩⑫⑫⑪ |⑪-⑫-|
36
口①口② |①---|
口①①口 |②---|
口口①①
口口口口

④口口⑤
③口口口
③③口口 |③---|
口③③口 |④-⑤-|
37
口①口口 |①-②-|
口③口② |③-④-|
口口口④
口口口口

⑦⑧口⑥
⑤口口口
⑤⑤口口 |⑤-⑥-|
口⑤⑤口 |⑦-⑧-|
38
口口④口 |①-②-|
⑤⑧⑧① |③-④-|
口②⑥口 |⑤-⑥-|
⑦口口③ |⑦-⑧-|
39
口②①口 |①-②-|
②口口① |③-④-|
④口口③
口④③口

⑤口口⑤
⑦口口⑥
口⑦口口 |⑤-⑥-|
口口口⑥ |⑦---|
40
②①口口 |①---|
口①①口 |②---|
口口①①
②口口口

⑤口口④
③口口口
③③口口 |③---|
口③③④ |④-⑤-|
41
⑦⑧①⑥ |①-②-|
⑤②口③ |③-④-|
⑤⑤④口 |⑤-⑥-|
⑦⑤⑤⑥ |⑦-⑧-|
42
口口④口 |①-②-|
⑤⑧⑧① |③-④-|
口②⑥口 |⑤-⑥-|
⑦口口③ |⑦-⑧-|
43
口③④口 |①-②-|
③口口④ |③-④-|
①口口② |⑤---|
⑤①②⑤ |----|
44
口①口② |①---|
口①①口 |②---|
口口①①
②口口口

④口口⑤
③口口口
③③口口 |③---|
口③③④ |④-⑤-|
45
口①口口 |①-②-|
口③口② |③-④-|
口口口④
口口口口

⑦⑧口⑥
⑤口口口
⑤⑤口口 |⑤-⑥-|
⑥⑤⑤⑦ |⑦-⑧-|
46
口口④口 |①-②-|
口口①口 |③-④-|
口②口口
口口③口

口口口口
⑤⑧⑧口
口口⑥口 |⑤-⑥-|
⑦口口口 |⑦-⑧-|
47
⑥②③⑥ |①-②-|
②⑦⑦③ |③-④-|
①⑤⑤④ |⑤---|
口①④口 |⑥-⑦-|
48
⑥③②⑥ |①-②-|
③⑦⑦② |③-④-|
④⑤⑤① |⑤---|
口④①口 |⑥-⑦-|
49
⑥②③⑥ |①-②-|
②⑦⑦③ |③-④-|
①⑤⑤④ |⑤---|
口①④口 |⑥-⑦-|
50
⑥③②⑥ |①-②-|
③⑦⑦② |③-④-|
④⑤⑤① |⑤---|
口④①口 |⑥-⑦-|
51
⑥③④⑥ |①-②-|
③⑦⑦④ |③-④-|
①口口② |⑤---|
①⑤⑤② |⑥-⑦-|
52
③口②② |----|
口③②④ |①---|
口①③口 |②---|
①口①③ |③-④-|
53
口④④口 |①-②-|
①口口口 |③-④-|
③口口②
口口口口

⑥口口⑥
⑦⑦⑦⑦
口口口口 |⑤---|
口⑤⑤口 |⑥-⑦-|

accuracy: 99.5%
最終更新:2023年06月04日 04:08