アットウィキロゴ
問答無用でGo!!
A応P

BASIC

Level: 3
BPM: 147
Notes: 232

1
口口口口 |----|
口口口口 |----|
口口口口 |----|
口口口口 |----|
2
口口口口 |----|
口口口口 |----|
口口口口 |----|
口口口口 |----|
3
口口口口 |①---|
口②②口 |--②-|
口②②口 |----|
①口口① |----|
4
口口①口 |①---|
口②口口 |----|
口口口口 |②---|
口口口口 |----|
5
口口口口 |①---|
口口口口 |----|
口口①口 |②---|
口②口口 |----|
6
口口口口 |①---|
②口口② |----|
①口口① |②---|
口口口口 |----|
7
口②①口 |①---|
口口口口 |----|
口口口口 |②---|
口口口口 |----|
8
①口口口 |①---|
口口口口 |----|
口口口口 |----|
口口口口 |----|
9
口口口口 |①---|
口口①② |----|
口口口口 |②---|
口口口口 |----|
10
口①①口 |①---|
④②②④ |②---|
口③③口 |③---|
口口口口 |④---|
11
口口口口 |①---|
口口③口 |②---|
口口②口 |③---|
口口①口 |----|
12
口口口口 |①---|
口③口口 |②---|
口②口口 |③---|
口①口口 |----|
13
口口口口 |①---|
口口口③ |②---|
口口口② |③---|
口口口① |----|
14
口口口口 |①---|
③口口口 |②---|
②口口口 |③---|
①口口口 |----|
15
口口③口 |①---|
口口②口 |②---|
口口①口 |③---|
口口口口 |----|
16
口③口口 |①---|
口②口口 |②---|
口①口口 |③---|
口口口口 |----|
17
口口口③ |①---|
口口口② |②---|
口口口① |③---|
口口口口 |----|
18
③口口口 |①---|
②口口口 |②---|
①口口口 |③---|
口口口口 |----|
19
口口口口 |①---|
口口①口 |----|
口口口口 |----|
口口口口 |----|
20
口口口口 |①---|
口①口口 |----|
口口口口 |----|
口口口口 |----|
21
①口口① |①---|
口口口口 |----|
口口口口 |----|
口口口口 |----|
22
口口口口 |①---|
口①①口 |②---|
口②②口 |③---|
口③③口 |----|
23
口口口口 |①---|
口口口口 |----|
①口口口 |----|
口口口口 |----|
24
口口口口 |①---|
口口口口 |----|
口口口① |----|
口口口口 |----|
25
口口口口 |①---|
口①①口 |----|
口口口口 |----|
口口口口 |----|
26
①口口① |①---|
②口口② |②---|
③口口③ |③---|
口口口口 |----|
27
口口口口 |----|
口口口口 |①---|
口口口口 |②---|
③②①口 |③---|
28
口口口口 |①---|
口口口口 |②---|
①②③口 |③---|
口口口口 |----|
29
口口口口 |----|
口①②③ |①---|
口口口口 |②---|
口口口口 |③---|
30
口③②① |①---|
口口口口 |②---|
口口口口 |③---|
口口口口 |----|
31
口口口口 |--①-|
口①①口 |----|
口口②口 |②---|
口口③口 |③---|
32
口口口口 |①---|
口③口口 |②---|
口②口口 |③---|
口①口口 |----|
33
①①口口 |①---|
口口口口 |----|
口口口口 |----|
口口口口 |----|
34
口口口口 |①---|
口口①① |----|
口口口口 |----|
口口口口 |----|
35
口口口口 |①---|
口口口口 |----|
口①①口 |----|
口口口口 |----|
36
口口口口 |①---|
①②②① |--②-|
口②②口 |----|
口口口口 |----|
37
②口口① |①---|
口③③口 |②---|
口口口口 |③---|
口口口口 |----|
38
口口口口 |①---|
口口口口 |②---|
口③①口 |③---|
口④②口 |④---|
39
口口口口 |①---|
②口口口 |②---|
口③③① |③---|
口口口口 |----|
40
口口口口 |①---|
①②②① |--②-|
口②②口 |----|
口口口口 |----|
41
①口口② |①---|
口③③口 |②---|
口口口口 |③---|
口口口口 |----|
42
口口口口 |①---|
口口口口 |②---|
口①③口 |③---|
口②④口 |④---|
43
口③③口 |①---|
口④④② |②---|
①口口口 |③---|
口口口口 |④---|
44
②口口① |①---|
口口口口 |----|
口口口口 |②---|
口口口口 |----|
45
口口口口 |①---|
②口口① |----|
口口口口 |②---|
口口口口 |----|
46
口口口口 |①---|
口口口口 |----|
②口口① |②---|
口口口口 |----|
47
口口口口 |①---|
口口口口 |----|
口口口口 |----|
口①①口 |----|
48
口口口口 |①---|
②口口① |----|
口口口口 |②---|
口口口口 |----|
49
口口口口 |①---|
口口口口 |----|
②口口① |②---|
口口口口 |----|
50
口口口口 |①---|
口②②口 |----|
口①①口 |②---|
口口口口 |----|
51
①口口① |①---|
②④④② |②---|
③口口③ |③---|
口口口口 |④---|
52
口口口① |①---|
口口口② |②---|
口口口③ |③---|
口口口④ |④---|
53
①口口口 |①---|
②口口口 |②---|
③口口口 |③---|
④口口口 |④---|
54
口口口口 |①---|
口口口口 |----|
②口口② |②---|
口①①口 |----|
55
③口口③ |①---|
口②②口 |②---|
口①①口 |③---|
口口口口 |----|
56
口口①口 |①---|
口口②口 |②---|
口口③口 |③---|
口口④口 |④---|
57
口①口口 |①---|
口②口口 |②---|
口③口口 |③---|
口④口口 |④---|
58
口口口口 |①---|
口口口口 |----|
①②②① |②---|
口口口口 |----|
59
口口口口 |①---|
③口口③ |②---|
口②②口 |③---|
口①①口 |----|
60
②②①① |①---|
口口口口 |----|
口口口口 |②---|
口口口口 |----|
61
③③③③ |①---|
口②②口 |②---|
口①①口 |③---|
口口口口 |----|
62
口口口口 |----|
口口口口 |----|
口口口口 |----|
口口口口 |----|
63
口口口口 |①---|
口口③口 |②---|
口口②口 |③---|
口口①口 |----|
64
口口口口 |①---|
口③口口 |②---|
口②口口 |③---|
口①口口 |----|
65
口口口口 |①---|
口口口③ |②---|
口口口② |③---|
口口口① |----|
66
口口口口 |①---|
③口口口 |②---|
②口口口 |③---|
①口口口 |----|
67
口口③口 |①---|
口口②口 |②---|
口口①口 |③---|
口口口口 |----|
68
口③口口 |①---|
口②口口 |②---|
口①口口 |③---|
口口口口 |----|
69
口口口③ |①---|
口口口② |②---|
口口口① |③---|
口口口口 |----|
70
③口口口 |①---|
②④④口 |②---|
①口口口 |③---|
口口口口 |④---|

accuracy: 99.5%
最終更新:2023年06月14日 00:01