アットウィキロゴ
問答無用でGo!!
A応P

ADVANCED

Level: 6
BPM: 147
Notes: 495

1
口口口口 |----|
口口口口 |----|
口口口口 |----|
口口口口 |----|
2
口口口口 |----|
口口口口 |----|
口口口口 |----|
口口口口 |----|
3
③③③③ |①-②-|
①口口① |--③-|
口口口口 |----|
②口口② |----|
4
口口口口 |①---|
口口口口 |②---|
口①②③ |③---|
口①②③ |----|
5
口口①口 |①---|
口②口口 |②---|
口口③口 |③---|
口④口口 |④---|
6
③②①口 |①---|
③②①口 |②---|
口口口口 |③---|
口口口口 |----|
7
口口口口 |①---|
④口口② |②---|
口口口口 |③---|
口③①口 |④---|
8
④口口② |①---|
口口口口 |②---|
口③①口 |③---|
口口口口 |④---|
9
口口口口 |①---|
④口口② |②---|
口口口口 |③---|
口③①口 |④---|
10
①口口① |①---|
口口口口 |②---|
口②②口
口口口口

④口口④
④口口④
口口口口 |③---|
③口口③ |④---|
11
口③②口 |①---|
口④④口 |②---|
②口口③ |③--④|
口①①口 |----|
12
口②③口 |①---|
④口口④ |②---|
③口口② |③--④|
⑤①①⑤ |--⑤-|
13
口③②口 |①---|
口④④口 |②---|
②口口③ |③--④|
口①①口 |----|
14
口口③口 |①---|
②④口② |②---|
口口⑤口 |③-④-|
口①①口 |⑤---|
15
口③②口 |①---|
口④④口 |②---|
②口口③ |③--④|
口①①口 |----|
16
口②③口 |①---|
④口口④ |②---|
③口口② |③--④|
⑤①①⑤ |--⑤-|
17
口③②口 |①---|
口④④口 |②---|
②口口③ |③--④|
口①①口 |----|
18
⑤口口⑤ |①---|
口④④口 |②---|
②③③② |③-④-|
口①①口 |⑤---|
19
口①④口 |①-②-|
⑤口口口 |③-④-|
口口口⑥ |⑤--⑥|
⑦③②口 |--⑦-|
20
③口口③ |①--②|
口②②口 |--③-|
口口口口 |----|
口口①口 |----|
21
口⑥③口 |①--②|
⑤口口② |--③-|
口口口口 |④--⑤|
口④①口 |--⑥-|
22
口口口口 |①---|
口口①① |②---|
口口②② |③---|
口口③③ |----|
23
口④①口 |①-②-|
口口口⑤ |③-④-|
⑥口口口 |⑤--⑥|
口②③⑦ |--⑦-|
24
口③③口 |①--②|
②口口② |--③-|
口口口口 |----|
口①口口 |----|
25
口③⑥口 |①--②|
②口口⑤ |--③-|
口口口口 |④--⑤|
口①④口 |--⑥-|
26
口口口口 |①---|
①①口口 |②---|
②②口口 |③---|
③③口口 |----|
27
④④口口 |----|
口口③口 |①-②-|
口②口口 |③---|
口口①口 |④---|
28
口口①口 |①-②-|
口②口口 |③-④-|
口口③口 |⑤---|
口④⑤口 |----|
29
口口④④ |----|
③口口口 |①-②-|
口口口② |③---|
①口口口 |④---|
30
口①口口 |①-②-|
口口②口 |③-④-|
口③口口 |⑤---|
口⑤④口 |----|
31
口④②口 |--①-|
口④②口 |--②-|
口③①口 |③---|
口③①口 |④---|
32
⑤口口⑤ |①-②-|
口⑤⑤口 |③-④-|
②口口③ |⑤---|
口④①口 |----|
33
口①①口 |①---|
③口口② |--②-|
口①①口 |③---|
口④④口 |④---|
34
①口口① |①---|
口①①口 |----|
口口口口 |----|
口口口口 |----|
35
口口口口 |①-②-|
口口口口 |③-④-|
口④口口
口①②③

口口口⑥
口口口口
⑤口口⑧ |⑤-⑥-|
口⑦口口 |⑦-⑧-|
36
③③③③ |①-②-|
①口口① |--③-|
口口口口
②口口②

口口口口
口④口口
口口口口 |--④-|
⑤口口口 |--⑤-|
37
⑥口口⑦ |①②③④|
口口⑤口 |⑤-⑥-|
口④③口 |⑦---|
口②①口 |----|
38
③口口④ |①---|
①口口② |②---|
口口口口 |③-④-|
⑤②①⑥ |⑤-⑥-|
39
③③④④ |①-②-|
口口口口 |③-④-|
①①②② |⑤---|
口⑤⑤口 |----|
40
③③③③ |①-②-|
①口口① |--③-|
口口口口
②口口②

口口口口
口口④口
口口口口 |--④-|
口口口⑤ |--⑤-|
41
⑦口口⑥ |①②③④|
口⑤口口 |⑤-⑥-|
口③④口 |⑦---|
口①②口 |----|
42
④口口③ |①---|
②口口① |②---|
口口口口 |③-④-|
⑥①②⑤ |⑤-⑥-|
43
④④③③ |①-②-|
口⑤⑤口 |③-④-|
②②①① |⑤---|
⑥口口⑥ |⑥---|
44
口③口② |①---|
①⑤④② |②---|
①口口口 |③-④-|
口口口口 |--⑤-|
45
口口口口 |①-②-|
口口口口 |--③-|
口③①口 |④---|
口②④口 |----|
46
②口③① |①---|
②④口① |②---|
口口口口 |③-④-|
⑤口口口 |--⑤-|
47
⑧⑦⑥⑤ |①-②-|
口④①口 |③-④-|
口②③口 |⑤-⑥-|
口口口口 |⑦-⑧-|
48
口口口口 |①---|
②口口口 |②---|
②④⑤① |③-④-|
口口③① |--⑤-|
49
口口②口 |①-②-|
口①口口 |--③-|
口④口口 |④---|
口口③口 |----|
50
口口口口 |①---|
⑤口口口 |②---|
①口④② |③-④-|
①③口② |--⑤-|
51
①口口① |①---|
口②②口 |②-③-|
口③③口
口口口口

⑤口口⑤
⑤口口⑤
口口口口 |④---|
口④④口 |⑤---|
52
⑤口口口 |--①-|
⑤口③④ |②-③-|
①②口口 |④---|
口口口口 |--⑤-|
53
口口口口 |--①-|
口④④口 |②-③-|
口④④口 |④---|
口①②③ |----|
54
④口⑤⑤ |--①-|
④口③口 |②-③-|
口②口口 |④---|
口口①口 |⑤---|
55
③③口口 |①---|
③③②② |②---|
①①②② |③---|
①①口口 |----|
56
口口口⑤ |--①-|
④③口⑤ |②-③-|
口口②① |④---|
口口口口 |--⑤-|
57
口口口口 |--①-|
口④④口 |②-③-|
口④④口 |④---|
③②①口 |----|
58
口⑧口① |①-②-|
②口⑦口 |③-④-|
口⑥口③ |⑤-⑥-|
④口⑤口 |⑦-⑧-|
59
③口①① |①---|
③口口口 |②---|
口口口口 |③---|
口②②口 |----|
60
④⑤⑤口 |①-②-|
口⑥⑥③ |③-④-|
②⑦⑦口 |⑤-⑥-|
口口口① |⑦---|
61
②口口① |①---|
①③③② |②---|
口口口口 |③---|
口③③口 |----|
62
口口口口 |----|
口口口口 |----|
口口口口 |----|
口口口口 |----|
63
口③②口 |①---|
口④④口 |②---|
②口口③ |③--④|
口①①口 |----|
64
口②③口 |①---|
④口口④ |②---|
③口口② |③--④|
⑤①①⑤ |--⑤-|
65
口③②口 |①---|
口④④口 |②---|
②口口③ |③--④|
口①①口 |----|
66
口口③口 |①---|
②④口② |②---|
口口⑤口 |③-④-|
口①①口 |⑤---|
67
口③②口 |①---|
口④④口 |②---|
②口口③ |③--④|
口①①口 |----|
68
口②③口 |①---|
④口口④ |②---|
③口口② |③--④|
⑤①①⑤ |--⑤-|
69
口③②口 |①---|
口④④口 |②---|
②口口③ |③--④|
口①①口 |----|
70
⑥口口⑥ |①---|
④⑤⑤④ |②---|
口③③口 |③-④-|
②①①② |⑤-⑥-|

accuracy: 99.5%
最終更新:2023年06月14日 00:16