アットウィキロゴ
問答無用でGo!!
A応P

EXTREME

Level: 8
BPM: 147
Notes: 637

1
口口口口 |----|
口口口口 |----|
口口口口 |----|
口口口口 |----|
2
口口口口 |----|
口口口口 |----|
口口口口 |----|
口口口口 |----|
3
②口④① |①-②-|
⑤③口③ |--③-|
口口③口 |--④-|
①③口② |--⑤-|
4
⑦⑥口口 |①②③④|
口口口⑤ |⑤-⑥-|
口④口③ |⑦---|
口②口① |----|
5
口⑥⑤口 |①--②|
④⑧⑦② |③--④|
口口口口 |⑤-⑥-|
口③①口 |⑦-⑧-|
6
口口口⑤ |①-②-|
口口⑤口 |③-④-|
④③②① |⑤---|
④③②① |----|
7
①口①口 |①---|
口口口⑤ |②---|
③④口口 |③-④-|
口④口② |--⑤-|
8
口②口口 |①-②-|
口②①口 |--③-|
口口④口 |④---|
口③④口 |----|
9
①口口⑥ |①---|
口⑤④② |②--③|
①③口口 |④-⑤-|
口口口② |--⑥-|
10
口口口⑧ |①②③④|
⑤口⑧⑥ |⑤-⑥-|
③⑧④口 |⑦---|
①⑦②口 |⑧---|
11
口①④口 |①---|
口口口② |②---|
②③口口 |③--④|
口③①口 |----|
12
口②口口 |①---|
①口口口 |②---|
口口口①
口口②口

口口③口
⑤口③口
口口口口 |③--④|
口④口口 |--⑤-|
13
口①④口 |①---|
口口口② |②---|
②③口口 |③--④|
口③①口 |----|
14
口口口口 |①---|
①②②① |②---|
①②②①
口口口口

③口⑤③
⑤口口口
口口口⑤ |③-④-|
④⑤口④ |⑤---|
15
口①④口 |①---|
口口口② |②---|
②③口口 |③--④|
口③①口 |----|
16
口②口口 |①---|
①口口口 |②---|
口口口①
口口②口

口口③口
⑤口③口
口口口口 |③--④|
口④口口 |--⑤-|
17
口①④口 |①---|
口口口② |②---|
②③口口 |③--④|
口③①口 |----|
18
口②口口 |①---|
②口口口 |②---|
口口①口
口口口①

口口③③
口口④④
③④⑤⑤ |③-④-|
③④⑤口 |⑤---|
19
①②④③ |①-②-|
口⑦⑥口 |③-④-|
口⑤口口 |⑤⑥-⑦|
口口⑧口 |--⑧-|
20
口口口③ |①--②|
②口口③ |--③-|
口口口口 |----|
口①口口 |----|
21
口③口⑥ |①--②|
口口口口 |--③-|
⑤口②口 |④--⑤|
①口④口 |--⑥-|
22
①②①口 |①---|
②①口① |②---|
③口③② |③---|
口③②③ |----|
23
③④②① |①-②-|
口⑥⑦口 |③-④-|
口口⑤口 |⑤⑥-⑦|
口⑧口口 |--⑧-|
24
③口口口 |①--②|
③口口② |--③-|
口口口口 |----|
口口①口 |----|
25
⑥口③口 |①--②|
口口口口 |--③-|
口②口⑤ |④--⑤|
口④口① |--⑥-|
26
口①②① |①---|
①口①② |②---|
②③口③ |③---|
③②③口 |----|
27
④口口口 |----|
口口③口 |①-②-|
口②口口 |③---|
口口①口 |④---|
28
口口口① |①-②-|
③口口② |③-④-|
④口口口 |⑤---|
口⑤⑤口 |----|
29
口③③① |----|
④③口口 |①-②-|
口③③口 |③---|
②③③口 |④---|
30
②④口口 |①-②-|
口口⑤口 |③-④-|
口⑤口口 |⑤---|
口口③① |----|
31
④口③① |--①-|
口口③口 |--②-|
口②③口 |③---|
口口③口 |④---|
32
口口口① |①-②-|
③口口② |③-④-|
④口口口 |⑤---|
口⑤⑤口 |----|
33
①口口① |①---|
口②②口 |--②-|
口①①口
口口口口

④口口④
口口口口
③口口③ |③---|
口口口口 |④---|
34
⑧口④口 |①-②-|
口⑦口③ |③-④-|
⑥口②口 |⑤-⑥-|
①⑤口① |⑦-⑧-|
35
口③口③ |①-②-|
②口②口 |③-④⑤|
口①口①
口⑤④口

口口口口
口口口口
⑧口⑦⑨ |⑥-⑦-|
⑥口口口 |⑧-⑨-|
36
②②①① |①-②-|
口③口③ |--③-|
口口③口
口③②②

口口⑤⑤
④口④口
口口口口 |--④-|
口口口口 |--⑤-|
37
口⑥口口 |①②③④|
口口⑥⑤ |⑤-⑥-|
口④口③
口②口①

⑦口口口
口⑦口口
⑨口⑧⑩ |⑦-⑧-|
⑨口口口 |⑨-⑩-|
38
④⑥⑤② |①--②|
④⑧⑦② |③--④|
口口口口 |⑤-⑥-|
口③①口 |⑦-⑧-|
39
③口口① |①-②-|
⑤口口⑤ |③-④-|
④④②② |⑤---|
口①③口 |----|
40
②②①① |①-②-|
口③口③ |--③-|
口口③口
口③②②

⑤⑤口口
口口④口
口④口口 |--④-|
口口口口 |--⑤-|
41
口口⑥口 |①②③④|
⑤⑥口口 |⑤-⑥-|
③口④口
①口②口

口口口⑦
口口⑦口
⑩⑧口⑨ |⑦-⑧-|
口口口⑨ |⑨-⑩-|
42
②口口口 |①--②|
②口口口 |③-④-|
口口④口
口①③口

口⑦⑥口
⑧口口⑤
口口口口 |⑤-⑥-|
口口口口 |⑦-⑧-|
43
④⑤⑤② |①-②-|
口④②口 |③-④-|
③⑤⑤① |⑤---|
③⑥⑥① |⑥---|
44
口⑥口① |①---|
口③口① |②--③|
口⑤④口 |④-⑤-|
②⑤口口 |--⑥-|
45
⑦口①② |①-②-|
口⑥口② |--③-|
⑤口④口 |④-⑤-|
口口④③ |⑥-⑦-|
46
口口①① |①---|
口⑤口③ |②---|
⑥口④口 |③-④-|
②②口口 |⑤-⑥-|
47
口④口⑧ |①-②-|
③口⑦口 |③-④-|
口②口⑥ |⑤-⑥-|
口⑤口① |⑦-⑧-|
48
①口①口 |①---|
口口口⑤ |②---|
口③④口 |③-④-|
口口④② |--⑤-|
49
口②口口 |①-②-|
口②①口 |--③-|
口口口口
③口口口

口口口⑦
口口⑥口
口④口⑤ |④-⑤-|
口④口口 |⑥-⑦-|
50
①口口⑥ |①---|
口⑤④② |②--③|
①③口口 |④-⑤-|
口口口② |--⑥-|
51
口口口⑧ |①②③④|
⑤口⑧⑥ |⑤-⑥-|
③⑧④口 |⑦---|
①⑦②口 |⑧---|
52
①⑤③⑦ |①-②-|
③口口口 |③-④-|
⑤口口口 |⑤---|
⑥④②口 |⑥-⑦-|
53
①⑤⑤口 |①-②-|
③口④口 |③-④-|
⑤口口③ |⑤---|
⑥口②口 |⑥---|
54
①口口① |①-②-|
口口口④ |③-④-|
口口口③
口口②口

⑥口⑤口
口⑤⑥口
⑤口⑤口 |⑤---|
口口口口 |⑥---|
55
⑫⑪⑩⑨ |①-②-|
⑧⑦⑥⑤ |③-④-|
③④③口 |⑤⑥⑦⑧|
口①②① |⑨⑩⑪⑫|
56
⑦口口⑥ |①-②-|
口口口⑤ |③-④-|
④口⑤③ |⑤---|
②口③① |⑥-⑦-|
57
口⑤⑤⑥ |①-②-|
口④口⑤ |③-④-|
③口口③ |⑤---|
口②口① |⑥---|
58
口④⑤口 |①-②-|
③口口⑥ |③-④-|
②口口⑦ |⑤-⑥-|
口①⑧口 |⑦-⑧-|
59
②③③① |①---|
③口口③ |②---|
口①②口 |③---|
①口口② |----|
60
⑤⑤④口 |①-②-|
⑥⑥口③ |③-④-|
⑦⑦口② |⑤-⑥-|
口①①口 |⑦---|
61
②③③① |①---|
口③③口 |②---|
口③③口 |③---|
口①②口 |----|
62
口口⑤⑤ |①②③-|
⑥口⑦③ |④⑤-⑥|
口④⑦③ |⑦---|
口②①口 |----|
63
口①口口 |①-②-|
口口口③ |③-④-|
③口口口
②口①④

口口⑥口
口口口口
口⑤口口 |⑤--⑥|
⑦⑤口口 |--⑦-|
64
④③口口 |①-②-|
①口口口 |③-④-|
口口口①
口口③②

口口⑤口
⑦口⑤口
口口口⑦ |⑤--⑥|
口⑥口口 |--⑦-|
65
②①⑥口 |①-②-|
⑦口口③ |③-④-|
③⑤口口 |⑤--⑥|
口⑤①④ |--⑦-|
66
⑦②⑤口 |①-②-|
⑦口③⑤ |③-④-|
⑤⑥⑥口 |⑤-⑥-|
④⑤①口 |⑦---|
67
口①口口 |①-②-|
口口口③ |③-④-|
③口口口
②口①④

口口⑥口
口口口口
口⑤口口 |⑤--⑥|
⑦⑤口口 |--⑦-|
68
②③口口 |①-②-|
①口口口 |③-④-|
口口口①
口口③④

口口⑤口
⑦口⑤口
口口口⑦ |⑤--⑥|
口⑥口口 |--⑦-|
69
④①⑥口 |①-②-|
口口口③ |③-④-|
③⑤口口 |⑤--⑥|
口⑤①② |----|
70
口①口口 |①---|
①①口口 |②---|
口口口②
口口②②

⑥⑤④③
⑤⑤④③
④④⑥口 |③-④-|
③③口口 |⑤-⑥-|

accuracy: 99.5%
最終更新:2023年06月14日 00:29