飽和世界
猫叉Master
EXTREME
Level: 9.1
BPM: 70-118
Notes(
hold): 541(60)
 
t=70
1
口口口口 |----|
口口口口 |----|
口口口口 |----|
口口口口 |----|
2
口口口口 |①---|
口口口口
口口口口
①口<口
t=80
口口口口
口口口口 |②-③-|
口口③口
②口口②
t=95
口口⑤口
口⑥⑦④
口口口⑥ |④-⑤-|
口④口口 |⑥-⑦-|
t=110
3
①②口① |①-②-|
口口口③ |③-④-|
口④口口
③口口口
口口口⑦
⑤口口口
⑥∨口⑤ |⑤-⑥-|
∧⑥口口 |⑦---|
4
口①口口 |①---|
口口②口 |②---|
④口⑤③ |③---|
口④口口 |④-⑤-|
5
①③口① |①-②-|
口口②口 |③-④-|
口口口③ |⑤-⑥-|
口口④口 |⑦-⑧-|
∨口口口
⑤口⑦⑤
口⑥口口
口口口口
口口口⑧
⑧口口口
口口口口
口口口口
6
口①②口 |①---②-③④|
口口口口 |⑤-⑥-|
③④⑤① |⑦---|
口⑥口口 |⑧---|
口口口口
口口口∨
口口口口
口口口⑦
口口口口
口口口口
口口口口
⑧口口⑧
7
口口口口 |①---|
①口口口 |----|
口口口口
∧①口<
t=100
口②∨
口口口口
口口口② |②---|
口口口口
t=90
口口口口
口口口口
口口口口
口口口口 |----|
8
口口口口 |①---|
口>①口 |----|
口①<口 |----|
口口口口 |②---|
口口②口
②口②口
口②口②
口②口口
9
口口口口 |①---|
口口口口
口口口口
①口口<
t=95
10
口口口口
口口口口 |②-③-|
口口③口
②口口②
t=100
口口⑤口
口口口④
口口口口 |④-⑤-|
口④口口
t=105
口口口口
口⑥⑦口
口口口⑥
口口口口 |⑥-⑦-|
t=110
11
①②口① |①-②-|
⑤口口③ |③-④-|
口④口⑤ |⑤-⑥-|
③口口口 |⑦---|
口口口⑦
口口口口
⑥∨口口
∧⑥口口
12
①口<口 |①---|
口口口口 |②---|
口口口口 |③---|
口口口口 |④-⑤-|
②口口口
口>口③
口口口口
口口口口
口口口口
口口口④
④口⑤口
口④口口
13
①③口① |①-②-|
口口②口 |③-④-|
口口口③ |⑤-⑥-|
口口④口 |⑦-⑧-|
∨口口口
⑤口⑦⑤
口⑥口口
口口口口
口口口⑧
⑧口口口
口口口口
口口口口
14
口①②口 |①---②-③④|
口口口口 |⑤-⑥-|
③④⑤① |⑦---|
口⑥口口 |⑧-⑨-|
口口口口
口口口∨
口口口口
口口口⑦
口口口口
口口口口
口⑨口口
⑧口口⑧
15
口口口口 |①---|
口口①口
口口口口
口口口口
t=100
口口口口
②口口口 |②-③④⑤---|
口⑤④③
口口口口
t=90
∨口⑥⑥
口口口口
口口口口 |⑥---|
⑥口口口
t=80
口口口口
口口口口
口口口口
⑦口⑦⑦ |⑦---|
t=115
16
口口①口 |①-②-|
③④③① |③-④-|
①②口③ |⑤-⑥-|
口口口口 |⑦-⑧-|
口口口口
⑦⑧口口
⑤⑥⑤⑧
口口⑦⑤
17
口口③① |①-②-|
③④口口 |③-④-|
①②②④ |⑤-⑥-|
口口口口 |⑦-⑧-|
口>口⑤
口口口口
⑤口口口
口口口口
口口口⑥
口口口口
口⑥口口
⑦⑧⑦⑦
18
③④①口 |①-②-|
①②③① |③-④-|
口口口③ |⑤-⑥-|
口口口口 |⑦-⑧-|
⑦⑧口口
⑤⑥口口
口口⑤⑧
口口⑦⑤
19
口口口① |①---②-③④|
①②⑥口 |⑤-⑥-|
⑤④③口 |⑦-⑧-|
口口口口 |⑨-⑩-|
口>口⑦
⑦口口口
口口口口
口口口口
⑨⑩口⑧
口⑧口口
口口口口
口口⑨⑨
20
口口①口 |①-②-|
③④③① |③-④-|
①②口③ |⑤-⑥-|
口口口口 |⑦-⑧-|
口口口口
⑦⑧口口
⑤⑥⑤⑧
口口⑦⑤
21
口口③① |①-②-|
③④口口 |③-④-|
①②②④ |⑤-⑥-|
口口口口 |⑦-⑧-|
口>口⑤
口口口口
⑤口口口
口口口口
口口口⑥
口口口口
口⑥口口
⑦⑧⑦⑦
22
口口口口 |①-②-|
⑤⑥口① |③-④-|
①②口∧ |⑤-⑥-|
③④⑤< |⑦-⑧-|
口口口口
口口口口
⑦⑧口口
口口口口
23
①②口口 |①-②-|
口口①口 |③-④-|
口口∧口 |⑤⑥⑦⑧|
口口口口 |⑨⑩⑪⑫|
⑥口⑤⑨
③④③③
⑧口⑦口
口口③口
口口口口
口口⑩口
口⑪口口
⑫口口口
24
口①口口 |①-②-|
①③④③ |③-④-|
③口②① |⑤-⑥-|
口口口口 |⑦-⑧-|
口口口口
口口⑧⑦
⑧⑤⑥⑤
⑤⑦口口
25
①③口口 |①-②-|
口口④③ |③-④-|
④②②① |⑤-⑥-|
口口口口 |⑦-⑧-|
⑤口<口
口口口口
口口口⑤
口口口口
⑥口口口
口口口口
口口⑥口
⑦⑦⑧⑦
26
∨①口口 |①-②-|
①∧②① |③-④-|
口口口口 |⑤-⑥-|
口口口口 |⑦-⑧-|
口③④③
③口⑥⑤
口⑤口口
⑤口口口
口口⑧⑦
口口口口
⑧口口口
口⑦口口
27
①口口口 |①---②-③④|
口⑥②① |⑤-⑥-|
口③④⑤ |⑦-⑧-|
口口口口 |⑨-⑩-|
⑦口<口
口口口⑦
口口口口
口口口口
⑧口口⑨
口口⑧口
口口口口
口⑨口<
口口⑩口
口口口口
口口口口
口⑩口口
28
口口口口 |①-②-|
①④③ |③-④-|
①<②① |⑤-⑥-|
口口口口 |⑦-⑧-|
口⑧口口
⑦⑤⑧⑦
⑤⑥⑥⑤
口口口口
29
①口口口 |①-②-|
口②④③ |③-④-|
③口②① |⑤-⑥-|
口④口口 |⑦-⑧-|
口⑤口口
⑤口⑧⑦
口⑦⑥⑤
⑦口口口
30
口口口口 |①-②-|
①口口口 |③-④-|
口口④③ |⑤-⑥-|
∧口②① |⑦-⑧-|
口口⑧⑦
口口⑥⑤
口口口口
口⑤口<
t=107
31
口口口∨ |①---|
口口口口 |----|
口口口①
口口口口
t=100
口②口
口口口口
口口口口 |②---|
口口口口
t=95
口口③口
③口③口
口③口③
口③口口 |③---|
t=118
32
∨口口口 |①-②-|
口口口③ |③---④-⑤⑥|
①口②口 |⑦-⑧-|
口口口① |⑨-⑩-|
⑧口④∨
⑤⑥⑦口
④口⑩⑨
⑨⑨口口
33
口③②口 |①-②-|
①①口口 |③---|
口口口③ |④-⑤-|
口口口口 |⑥---⑦-⑧⑨|
口∨口口
口口口⑥
口④⑤口
口口口④
口口⑦口
⑧⑨口口
口⑦口口
口口口口
34
②③口口 |①-②-|
⑤口①④ |③-④-|
口口口③ |⑤-⑥-|
口④⑤口 |⑦-⑧⑨⑩---|
口⑩⑨⑧
口口⑥口
口⑦口口
⑥口口口
35
∨口口口 |①-②-|
口口口③ |③---④-⑤⑥|
①口②口 |⑦-⑧-|
口口口① |⑨-⑩-|
⑧⑩④⑨
⑤⑥⑦口
④⑨口⑩
口口口口
36
口口口口 |①-②-|
④②③① |③-④-|
口口口口 |⑤-⑥-|
③①④② |⑦-⑧-|
⑦口口∨
口口口口
口⑥口⑤
口口口口
口⑧口口
口口口口
口口口⑧
口口口口
37
口口④② |①---|
①⑤③① |②-③-|
④②口口 |④-⑤-|
口⑥⑥口 |⑥---|
38
口口口∨ |①-②-|
③口口口 |③---④-⑤⑥|
口②口① |⑦-⑧-|
①口口口 |⑨-⑩-|
∨④口⑧
口⑦⑥⑤
⑨⑩口④
口口⑨⑨
39
口②③口 |①-②-|
口口①① |③---|
③口口口 |④-⑤-|
口口口口 |⑥---⑦-⑧⑨|
口口∨口
⑥口口口
口⑤④口
④口口口
口⑦口口
口口⑨⑧
口口⑦口
口口口口
40
口口③② |①-②-|
④①口⑤ |③-④-|
③口口口 |⑤-⑥-|
口⑤④口 |⑦-⑧⑨⑩---|
⑧⑨⑩口
口⑥口口
口口⑦口
口口口⑥
41
口⑤口口 |①-②-|
⑤口③⑥ |③-④-|
②③口① |⑤-⑥-|
口口①④ |⑦-⑧-|
口口口口
口口口口
⑦口口⑧
口⑦口口
42
口口③口 |①-②-|
④①口③ |③-④-|
⑤<①口 |⑤-⑥-|
②口口⑤ |⑦-⑧-|
⑧口口口
口⑦口口
口口⑥口
口口口口
43
口口①① |①---|
口口④口 |②-③-|
①③>② |④-⑤-|
②口口口 |⑥---|
⑥⑥口⑤
口口口口
口口口⑥
口口口口
44
口口口口 |①---|
口①口口 |----|
①∧口口 |----|
∧口口口 |②---|
口口②口
口②∧②
②口口∧
口口口口
45
①<①口 |----|
口口口① |----|
①口口 |①---|
口口口口 |----|
46
①口口口 |----|
口>①口 |①---|
口①口口 |----|
口①<口 |----|
t=115
47
口口口口 |①---|
口口①① |②---|
口口②口
口①口口
t=102
口④∨
口③口口
口口口④ |③---|
口口口口 |④---|
48
口口口口 |----|
口口口口 |①---|
口①口口
口口口口
t=90
口口口口
②口口口
口口口口 |②---|
∧②口< |----|
49
口口口口 |----|
口>①口 |①---|
口①<口 |----|
口口口口 |----|
50
口口①口 |----|
①口①口 |----|
口①口① |----|
口①口口 |①---|
最終更新:2021年01月12日 03:53