アットウィキロゴ
Spring Rouge
izna

BASIC

Level: 2
BPM: 125
Notes: 133

1
口口口口 |----|
口口口口 |----|
口口口口 |----|
口口口口 |----|
2
口口口口 |①---|
口口口口 |----|
口①口口 |----|
口口口口 |----|
3
口口口口 |①---|
口口口口 |----|
口口①口 |----|
口口口口 |----|
4
口口口口 |①---|
口口口口 |----|
口①口口 |----|
口口口口 |----|
5
口口口口 |①---|
口口口口 |----|
口口①口 |----|
口口口口 |----|
6
口口口口 |①---|
口口口口 |----|
口口口口 |②---|
口①②口 |----|
7
口口口口 |①---|
口口口口 |----|
口①②口 |②---|
口口口口 |----|
8
口口口口 |①---|
口①②口 |----|
口口口口 |②---|
口口口口 |----|
9
口①②口 |①---|
口口口口 |----|
口口口口 |②---|
口口口口 |----|
10
口口②① |①---|
口口口口 |----|
口口口口 |②---|
口口口口 |----|
11
②①口口 |①---|
口口口口 |----|
口口口口 |②---|
口口口口 |----|
12
口口口口 |①---|
①②口口 |----|
口口口口 |②---|
口口口口 |----|
13
口口口口 |①---|
口口①② |----|
口口口口 |②---|
口口口口 |----|
14
口口口口 |①---|
口口口口 |----|
口口②① |②---|
口口口口 |----|
15
口口口口 |①---|
口口口口 |----|
②①口口 |②---|
口口口口 |----|
16
口口口口 |①---|
口口口口 |----|
口口口口 |②---|
①②口口 |----|
17
口口口口 |①---|
口口口口 |----|
口口口口 |②---|
口口①② |----|
18
口口口口 |①---|
口口口② |----|
口①①口 |----|
口口口口 |②---|
19
口口口口 |①---|
口口口口 |----|
口口口① |②---|
口口②口 |----|
20
口口口口 |①---|
口②②口 |----|
口①①口 |②---|
口口口口 |----|
21
口口口口 |①---|
口口口口 |----|
口①①口 |②---|
口②②口 |----|
22
口口口口 |①---|
②口口口 |----|
口①①口 |----|
口口口口 |②---|
23
①口口口 |①---|
口②②口 |----|
口口口口 |②---|
口口口口 |----|
24
口口口口 |①---|
口②②口 |----|
口①①口 |②---|
口口口口 |----|
25
口①①口 |①---|
口口口口 |----|
口口口口 |----|
口口口口 |----|
26
口①口口 |①---|
口口②口 |----|
口口口口 |②---|
口口口口 |----|
27
口口口口 |①---|
口口口口 |----|
口①口口 |②---|
口口②口 |----|
28
口口①口 |①---|
口②口口 |----|
口口口口 |②---|
口口口口 |----|
29
口口口口 |①---|
口口口口 |----|
口口①口 |②---|
口②口口 |----|
30
口①口口 |①---|
口口②口 |----|
口口口口 |②---|
口口口口 |----|
31
口口口口 |①---|
口口口口 |----|
口①口口 |②---|
口口②口 |----|
32
口口①口 |①---|
口②口口 |----|
口口口口 |②---|
口口口口 |----|
33
口口口口 |①---|
口口口口 |----|
口口①口 |②---|
口②口口 |----|
34
③口口口 |①---|
②口口口 |②---|
①口口口 |③---|
口口口口 |----|
35
口口口③ |①---|
口口口② |②---|
口口口① |③---|
口口口口 |----|
36
口②①口 |①---|
口④③口 |②---|
口口口口 |③---|
口口口口 |④---|
37
口口口口 |①---|
口口口口 |②---|
口②①口 |③---|
口④③口 |④---|
38
④口口口 |①---|
③口口口 |②---|
②口口口 |③---|
①口口口 |④---|
39
口口口④ |①---|
口口口③ |②---|
口口口② |③---|
口口口① |④---|
40
口②①口 |①---|
口④③口 |②---|
口口口口 |③---|
口口口口 |④---|
41
口口口口 |①---|
口口口口 |----|
口①①口 |----|
口口口口 |----|
42
口口口口 |①---|
口①②口 |②---|
口③④口 |③---|
口口口口 |④---|
43
①口口① |①---|
口口口口 |----|
口口口口 |----|
口口口口 |----|
44
口口口口 |①---|
①②口口 |----|
口口口口 |②---|
口口口口 |----|
45
口口口口 |①---|
口口①② |----|
口口口口 |②---|
口口口口 |----|
46
口口口口 |①---|
口口口口 |----|
口口②① |②---|
口口口口 |----|
47
口口口口 |①---|
口口口口 |----|
②①口口 |②---|
口口口口 |----|
48
口口口口 |①---|
口口口口 |----|
口口口口 |②---|
①②口口 |----|
49
口口口口 |①---|
口口口口 |----|
口口口口 |②---|
口口①② |----|
50
口口口口 |①---|
口②②口 |----|
口①①口 |②---|
口口口口 |----|
51
口口口口 |①---|
口口口口 |----|
口①①口 |②---|
口②②口 |----|
52
口口口口 |①---|
口②②口 |----|
口①①口 |②---|
口口口口 |----|
53
口口口口 |①---|
③口口③ |----|
口①①口 |②---|
口②②口 |③---|

accuracy: 99.5%
最終更新:2023年06月18日 04:17