アットウィキロゴ
Spring Rouge
izna

ADVANCED

Level: 6
BPM: 125
Notes: 357

1
口口口口 |----|
口口口口 |----|
口口口口 |----|
口口口口 |----|
2
④③②① |①-②-|
口口口口 |③-④-|
口口口口 |----|
口口口口 |----|
3
口口口口 |①-②-|
①②③④ |③-④-|
口口口口 |----|
口口口口 |----|
4
口口口口 |①-②-|
口口口口 |③-④-|
④③②① |----|
口口口口 |----|
5
口口口口 |①-②-|
口口口口 |③-④-|
口口口口 |----|
①②③④ |----|
6
口口口口 |①-②-|
口口口口 |③-④-|
口口口口 |----|
④③②① |----|
7
口口口口 |①-②-|
口口口口 |③-④-|
①②③④ |----|
口口口口 |----|
8
口口口口 |①-②-|
④③②① |③-④-|
口口口口 |----|
口口口口 |----|
9
①②③口 |①-②-|
口④④口 |③-④-|
口④④口 |----|
口口口口 |----|
10
口口口① |①-②-|
口口口② |③-④-|
口⑧⑦③ |⑤-⑥-|
口⑥⑤④ |⑦-⑧-|
11
①口口口 |①-②-|
②口口口 |③-④-|
③⑦⑧口 |⑤-⑥-|
④⑤⑥口 |⑦-⑧-|
12
口⑧口① |①-②-|
口口⑦② |③-④-|
口⑥口③ |⑤-⑥-|
口口⑤④ |⑦-⑧-|
13
①口⑧口 |①-②-|
②⑦口口 |③-④-|
③口⑥口 |⑤-⑥-|
④⑤口口 |⑦-⑧-|
14
口口口① |①-②-|
口口口② |③-④-|
口⑧⑦③ |⑤-⑥-|
口⑥⑤④ |⑦-⑧-|
15
①口口口 |①-②-|
②口口口 |③-④-|
③⑦⑧口 |⑤-⑥-|
④⑤⑥口 |⑦-⑧-|
16
口⑧口① |①-②-|
口口⑦② |③-④-|
口⑥口③ |⑤-⑥-|
口口⑤④ |⑦-⑧-|
17
①口⑧口 |①-②-|
口②口⑦ |③-④-|
③口⑥口 |⑤-⑥-|
口④口⑤ |⑦-⑧-|
18
口口口口 |①---|
口口口口 |----|
③口口② |----|
口①①口 |②-③-|
19
口口口口 |①--②|
③④口③ |--③-|
口②②口 |④---|
①⑥⑤① |⑤-⑥-|
20
③口口③ |①--②|
口②②口 |--③-|
①⑤④① |④-⑤-|
⑦⑥⑥⑦ |⑥--⑦|
21
口口口口 |--①-|
口口③口 |②-③-|
口②①口
口口口口

口口口口
口④口口
口口⑥口 |④---|
口口⑤口 |⑤-⑥-|
22
口口口口 |①---|
口④①口 |----|
口③口口 |--②-|
口②口口 |③-④-|
23
口①①口 |①--②|
②口口② |--③-|
⑥④④口 |④---|
⑤③③口 |⑤-⑥-|
24
口①①口 |①--②|
②口口② |--③-|
口③③口
口口口口

口⑦⑥口
口⑤④口
口口口口 |④-⑤-|
口口口口 |⑥-⑦-|
25
口口口口 |----|
口口口口 |----|
口口口口 |----|
口口口口 |----|
26
①口③口 |--①-|
④②⑥口 |②-③-|
口⑤口口 |--④-|
口口口口 |⑤-⑥-|
27
口口口口 |--①-|
⑦⑥⑤④ |②-③-|
①口③口 |④-⑤-|
口②口口 |⑥-⑦-|
28
口③口① |--①-|
口⑥②④ |②-③-|
口口⑤口 |--④-|
口口口口 |⑤-⑥-|
29
口口口口 |--①-|
④⑤⑥口 |②-③-|
口③口① |④-⑤-|
口口②口 |⑥---|
30
①口③口 |--①-|
④②⑥口 |②-③-|
口⑤口口 |--④-|
口口口口 |⑤-⑥-|
31
口口口口 |--①-|
⑦⑥⑤④ |②-③-|
①口③口 |④-⑤-|
口②口口 |⑥-⑦-|
32
口③口① |--①-|
口⑥②④ |②-③-|
口口⑤口 |--④-|
口口口口 |⑤-⑥-|
33
口⑦⑧口 |①-②-|
口⑤⑥口 |③-④-|
口③④口 |⑤-⑥-|
口①②口 |⑦-⑧-|
34
①口口① |①---|
口⑤⑤口 |--②-|
④②口④ |③--④|
口③③口 |--⑤-|
35
②①①② |①--②|
口口口口 |--③-|
③⑤⑥③ |④---|
口④④口 |--⑤⑥|
36
②口口② |①--②|
⑥①口⑥ |--③-|
③⑤⑤③ |④--⑤|
口④④口 |--⑥-|
37
①口口① |①---|
口口口口 |--②-|
②④⑤② |③---|
口③③口 |--④⑤|
38
②口口口 |①---|
④①口④ |--②-|
口③③口 |③--④|
口⑤⑤口 |--⑤-|
39
②口口② |①--②|
④①①④ |--③-|
口⑤⑥口 |④---|
③口口③ |--⑤⑥|
40
②口口② |①--②|
⑥①口⑥ |--③-|
③⑤⑤③ |④--⑤|
口④④口 |--⑥-|
41
①口口① |①---|
口口口口 |----|
口口口口 |----|
口口口口 |----|
42
①口口① |①--②|
⑥②②⑥ |--③-|
③⑤⑤③ |④--⑤|
④口口④ |--⑥-|
43
①①①① |①---|
口口口口 |----|
口口口口 |----|
口口口口 |----|
44
①②③④ |①-②-|
⑦⑥⑤口 |③-④-|
口口口口 |--⑤-|
口口口口 |⑥-⑦-|
45
口口口口 |①-②-|
口口口口 |③-④-|
①②③④ |⑤-⑥-|
⑧⑦⑥⑤ |⑦-⑧-|
46
④③②① |①-②-|
⑤⑥⑦⑧ |③-④-|
口口口口 |⑤-⑥-|
口口口口 |⑦-⑧-|
47
口口口口 |①-②-|
口口口口 |③-④-|
④③②① |⑤-⑥-|
⑤⑥⑦⑧ |⑦-⑧-|
48
①②③④ |①-②-|
⑦⑥⑤口 |③-④-|
口口口口 |--⑤-|
口口口口 |⑥-⑦-|
49
口口口口 |①-②-|
口口口口 |③-④-|
①②③④ |⑤-⑥-|
⑧⑦⑥⑤ |⑦-⑧-|
50
口口口口 |①---|
②口口② |--②-|
口①①口 |----|
口口口口 |----|
51
②口口② |①---|
口口口口 |--②-|
口①①口 |----|
口口口口 |----|
52
口口口口 |①---|
②口口② |--②-|
口口口口 |----|
口①①口 |----|
53
②口口② |①---|
口③③口 |--②-|
口③③口 |----|
口①①口 |③---|

accuracy: 99.5%
最終更新:2023年06月18日 04:23