アットウィキロゴ
Spring Rouge
izna

EXTREME

Level: 8
BPM: 125
Notes: 546

1
口口口口 |----|
口口口口 |----|
口口口口 |----|
口口口口 |----|
2
⑤口口口 |①-②-|
①口口口 |③-④⑤|
②④口口
③口口口

口口口⑧
口⑦⑨口
口⑩⑥⑧ |--⑥⑦|
口口口口 |⑧-⑨⑩|
3
①口⑥口 |①-②③|
口⑦⑪⑤ |④-⑤⑥|
口⑨③⑩ |⑦-⑧⑨|
⑧②口④ |⑩⑪--|
4
口口口口 |①--②|
①②③口 |--③-|
口口口口
口①②③

口口口口
⑤口口④
⑤口口④ |--④-|
口口口口 |⑤---|
5
口③②① |①--②|
④口口⑤ |--③-|
③②①口 |--④-|
④口口⑤ |⑤---|
6
⑥口口⑤ |①---|
④②口④ |--②③|
⑥口③⑤ |④--⑤|
口①①口 |--⑥-|
7
⑧①①⑧ |①-②③|
口⑥⑦口 |④⑤⑥⑦|
口④⑤口 |⑧---|
口②③口 |----|
8
口①口③ |①--②|
口口②口 |--③-|
①口③口
口②口口

口口⑤口
口口口⑤
口口口口 |--④-|
④⑥⑦口 |⑤-⑥⑦|
9
②⑤⑤④ |①②-③|
口②④口 |④-⑤-|
口①口③ |----|
口口口口 |----|
10
①口③口 |①-②-|
口②⑤④ |③-④⑤|
口口口口
口口口口

口口⑩⑨
⑧口口⑪
⑦口口口 |-⑥⑦⑧|
⑥口口口 |-⑨⑩⑪|
11
①口口⑦ |①②③④|
⑤②⑧口 |⑤⑥⑦⑧|
口⑥口③
口口④口

口⑮⑮口
口⑭口⑪
⑨口⑫口 |⑨⑩⑪⑫|
⑬⑩口口 |⑬⑭-⑮|
12
⑤口口⑩ |-①②③|
口⑥①⑨ |④-⑤⑥|
口②口⑧ |⑦-⑧-|
口④③⑦ |⑨-⑩-|
13
①口③口 |①-②-|
口口口口 |③-④⑤|
口口⑤口
口②口④

⑨口口⑩
⑥⑦⑧口
⑨口口⑩ |-⑥⑦⑧|
口口口口 |⑨-⑩-|
14
⑧⑥⑦口 |①-②-|
⑨③⑤口 |③-④⑤|
口②口口 |-⑥⑦-|
口①口④ |⑧-⑨-|
15
⑦④⑤口 |①-②-|
⑧⑥口③ |③④⑤⑥|
⑨口口② |⑦-⑧-|
⑩口口① |⑨-⑩-|
16
口⑤⑩① |①-②-|
口⑨⑥② |③-④-|
口口⑧③ |⑤-⑥-|
口⑦口④ |⑦⑧⑨⑩|
17
①口口口 |①-②-|
②口口口 |③-④-|
③口口口
④口口口

⑧口口口
口口⑦口
口⑥口口 |⑤-⑥-|
口口口⑤ |⑦-⑧-|
18
口口口口 |①---|
②口口口 |②---|
③⑤口口 |③---|
④①①口 |④-⑤-|
19
口口③口 |①--②|
口②口③ |--③-|
②口①口
口口口口

口口口口
口口口口
⑥口口口 |④---|
⑤④④口 |⑤-⑥-|
20
口口⑨口 |①-②③|
①③④⑥ |-④⑤-|
口⑤②⑦ |⑥-⑦-|
口⑩⑩⑧ |⑧⑨-⑩|
21
③口④口 |--①-|
口口口口 |②-③-|
①口②⑥ |④---|
口口口⑤ |⑤-⑥-|
22
口口口口 |①---|
②口⑥① |②---|
③⑤口口 |③-④-|
⑤口④口 |⑤-⑥-|
23
①④④口 |①--②|
口①口② |--③-|
③口②⑥ |④---|
口③口⑤ |⑤-⑥-|
24
⑨口口④ |①-②③|
⑧②⑤① |-④⑤-|
⑦口③口 |⑥-⑦-|
⑥口口口 |⑧-⑨-|
25
口口口口 |①---|
口⑥⑥① |②---|
口④口② |③-④⑤|
口口⑤③ |⑥---|
26
口④口② |①-②-|
口⑧口⑥ |③-④-|
口口③口 |⑤-⑥-|
①⑤⑦口 |⑦-⑧-|
27
②口④口 |①-②-|
口口口口 |③-④-|
口③口口
①口口口

口口口口
口⑦口⑤
口口口口 |⑤-⑥-|
⑧口⑥口 |⑦-⑧-|
28
②口④口 |①-②-|
⑥口⑧口 |③-④-|
口③口口 |⑤-⑥-|
口⑦⑤① |⑦-⑧-|
29
②口④口 |①-②-|
⑦口口⑦ |③-④-|
⑥③口⑥ |⑤-⑥-|
口⑤⑤① |⑦---|
30
口口口② |①-②-|
口⑥⑤⑧ |③④--|
口④③口 |-⑤⑥-|
①口⑦口 |⑦-⑧-|
31
③口口② |①-②-|
口③④口 |③-④-|
口口口④
①口口口

口⑦⑨⑧
⑦口口⑥
⑤口⑥口 |⑤-⑥-|
口⑤口口 |⑦-⑧⑨|
32
①口口口 |①-②-|
口②口⑤ |③④⑤-|
口①口④
口口③口

⑨⑥⑧⑦
口⑨口口
⑥口口⑩ |⑥⑦⑧-|
口口⑩口 |⑨-⑩-|
33
⑤④口口 |①②③-|
④⑤③口 |④-⑤-|
口②①口
口口口口

口口口口
口口口⑧
口⑨口⑦ |⑥-⑦-|
口口⑩⑥ |⑧-⑨⑩|
34
①⑤口① |①---|
⑤②口③ |--②-|
口口④口 |③--④|
口③口② |--⑤-|
35
③口口② |①--②|
口口口口 |--③-|
口口口①
②口①③

口口口口
口④④口
口④④⑥ |④---|
⑤口口口 |--⑤⑥|
36
口①①口 |①--②|
③口口② |--③-|
口口口口
口②③口

口⑥⑤口
口口口口
⑥④④⑤ |④--⑤|
口口口口 |--⑥-|
37
③口口② |①---|
口①①口 |--②-|
口④口口 |③---|
②口⑤③ |--④⑤|
38
口①①口 |①---|
口口②口 |--②-|
口口口口
②口口口

口口⑤口
③口口⑤
口④口口 |③--④|
口口③口 |--⑤-|
39
②口口③ |①--②|
口口口口 |--③-|
①口口口
③①口②

口口口口
口④④口
⑥④④口 |④---|
口口口⑤ |--⑤⑥|
40
口①①② |①--②|
口口③口 |--③④|
口④口口
②口口口

⑤口⑥⑦
口口口口
口口⑧口 |⑤--⑥|
⑦⑥口⑤ |--⑦⑧|
41
口①口口 |①-②-|
①②口③ |③④⑤⑥|
口口口④
口口⑥⑤

⑪口口⑪
口⑫⑫口
⑨⑩口口 |⑦⑧⑨⑩|
⑦⑧口口 |⑪-⑫-|
42
④⑥①口 |①--②|
②⑧⑦⑤ |--③④|
⑥③③① |⑤--⑥|
口②⑤口 |--⑦⑧|
43
口口口① |①-②③|
⑤口口④ |--④⑤|
口②③口
①口口口

口口口口
口口口口
⑦⑧⑧⑥ |--⑥⑦|
口⑨⑨口 |⑧-⑨-|
44
①口③口 |①-②-|
口②⑤④ |③-④⑤|
口口口口
口口口口

口口⑩⑨
⑧口口⑪
⑦口口口 |-⑥⑦⑧|
⑥口口口 |-⑨⑩⑪|
45
①口口⑦ |①②③④|
⑤②⑧口 |⑤⑥⑦⑧|
口⑥口③
口口④口

口⑮⑮口
口⑭口⑪
⑨口⑫口 |⑨⑩⑪⑫|
⑬⑩口口 |⑬⑭-⑮|
46
⑤口口⑩ |-①②③|
口⑥①⑨ |④-⑤⑥|
口②口⑧ |⑦-⑧-|
口④③⑦ |⑨-⑩-|
47
①口③口 |①-②-|
口口口口 |③-④⑤|
口口⑤口
口②口④

⑨口口⑩
⑥⑦⑧口
⑨口口⑩ |-⑥⑦⑧|
口口口口 |⑨-⑩-|
48
⑧⑥⑦口 |①-②-|
⑨③⑤口 |③-④⑤|
口②口口 |-⑥⑦-|
口①口④ |⑧-⑨-|
49
⑦④⑤口 |①-②-|
⑧⑥口③ |③④⑤⑥|
⑨口口② |⑦-⑧-|
⑩口口① |⑨-⑩-|
50
口口口① |①-②-|
口口口② |③-④⑤|
口⑤⑤③
口口口④

⑥口口口
口口口⑦
⑧口口口 |---⑥|
口⑨⑨口 |⑦⑧⑨-|
51
口⑩口① |①-②③|
口③④⑨ |④-⑤⑥|
⑧②②口 |⑦-⑧-|
⑤⑦口⑥ |⑨-⑩-|
52
①口口口 |①-②③|
口口②口 |④-⑤-|
口④口口
③⑤⑤①

口口口⑥
口口口⑦
口⑨⑩⑧ |⑥-⑦-|
口口口口 |⑧-⑨⑩|
53
②①⑥④ |①-②③|
①②④⑥ |④-⑤⑥|
口口口口
口口③⑤

口口口口
口口口口
口⑧⑧口 |⑦---|
⑦⑧⑧口 |⑧---|

accuracy: 99.5%
最終更新:2023年06月18日 04:58