アットウィキロゴ
セカイがカフェになっちゃった!
Petit Rabbit's with beans

BASIC

Level: 2
BPM: 158
Notes: 155

1
口口口口 |----|
口口口口 |----|
口口口口 |----|
口口口口 |----|
2
口口口口 |----|
口口口口 |----|
口口口口 |----|
口口口口 |----|
3
口口口口 |①---|
口②口口 |----|
口①口口 |②---|
口口口口 |----|
4
口①①口 |①---|
口口口口 |----|
口口口口 |----|
口口口口 |----|
5
口口口口 |①---|
口口②口 |----|
口口①口 |②---|
口口口口 |----|
6
口①①口 |①---|
口口口口 |----|
口口口口 |----|
口口口口 |----|
7
口口口口 |①---|
口①①口 |----|
口口口口 |----|
口口口口 |----|
8
口口口口 |①---|
口口口口 |----|
口①①口 |----|
口口口口 |----|
9
①口口口 |①---|
②口口口 |----|
口口口口 |②---|
口口口口 |----|
10
口口口口 |①---|
口口口口 |----|
①口口口 |②---|
②口口口 |----|
11
口口口口 |①---|
口口口② |----|
口①①口 |②---|
口口口口 |----|
12
口口口口 |①---|
口口口口 |----|
口口口① |②---|
口口口② |----|
13
口口口口 |①---|
口口口口 |----|
口口口口 |②---|
口②①口 |----|
14
口口口口 |①---|
口口口口 |----|
口②①口 |②---|
口口口口 |----|
15
口口口口 |①---|
口①①口 |----|
口②②口 |②---|
口口口口 |----|
16
口口口口 |①---|
①口口口 |----|
②口口口 |②---|
口口口口 |----|
17
口口口口 |①---|
口①②口 |----|
口口口口 |②---|
口口口口 |----|
18
口口口口 |①---|
口口口口 |----|
口①①口 |②---|
口②②口 |----|
19
口口口口 |①---|
口口口口 |----|
①②口口 |②---|
口口口口 |----|
20
口口口口 |①---|
口口口口 |----|
口口①② |②---|
口口口口 |----|
21
口口口口 |①---|
口口②① |----|
口口口口 |②---|
口口口口 |----|
22
口口口口 |①---|
②①口口 |----|
口口口口 |②---|
口口口口 |----|
23
①②口口 |①---|
口口口口 |----|
口口口口 |②---|
口口口口 |----|
24
口口①② |①---|
口口口口 |----|
口口口口 |②---|
口口口口 |----|
25
口口口口 |①---|
口口②① |----|
口口口口 |②---|
口口口口 |----|
26
口口口口 |①---|
②①口口 |----|
口口口口 |②---|
口口口口 |----|
27
口口口口 |①---|
口口口口 |----|
①②口口 |②---|
口口口口 |----|
28
口口口口 |①---|
口口口口 |----|
口口①② |②---|
口口口口 |----|
29
口口口口 |①---|
口口②① |----|
口口口口 |②---|
口口口口 |----|
30
口口口口 |①---|
②①口口 |----|
口口口口 |②---|
口口口口 |----|
31
①②口口 |①---|
口口口口 |----|
口口口口 |②---|
口口口口 |----|
32
口口①② |①---|
口口口口 |----|
口口口口 |②---|
口口口口 |----|
33
口口口口 |①---|
口口②① |----|
口口口口 |②---|
口口口口 |----|
34
口口口口 |①---|
②①口口 |----|
口口口口 |②---|
口口口口 |----|
35
口口口口 |①---|
口②②口 |----|
口①①口 |②---|
口口口口 |----|
36
口①①口 |①---|
口口口口 |----|
口口口口 |----|
口口口口 |----|
37
口①①口 |①---|
口②②口 |----|
口口口口 |②---|
口口口口 |----|
38
口口口口 |①---|
口口口口 |----|
口①①口 |----|
口口口口 |----|
39
口口口口 |①---|
①②口口 |----|
口口口口 |②---|
口口口口 |----|
40
口口口口 |①---|
口口①② |----|
口口口口 |②---|
口口口口 |----|
41
口口②① |①---|
口口口口 |----|
口口口口 |②---|
口口口口 |----|
42
②①口口 |①---|
口口口口 |----|
口口口口 |②---|
口口口口 |----|
43
口①②口 |①---|
口口口口 |----|
口口口口 |②---|
口口口口 |----|
44
口口口口 |①---|
口①②口 |----|
口口口口 |②---|
口口口口 |----|
45
口①②口 |①---|
口口口口 |----|
口口口口 |②---|
口口口口 |----|
46
口口口口 |①---|
口①②口 |----|
口口口口 |②---|
口口口口 |----|
47
①口口① |①---|
口口口口 |----|
口口口口 |----|
口口口口 |----|
48
口口口口 |①---|
①口口① |----|
口口口口 |----|
口口口口 |----|
49
口口口口 |①---|
口口口口 |----|
口①②口 |②---|
口口口口 |----|
50
口口口口 |①---|
口①①口 |----|
口②口口 |②---|
口口口口 |----|
51
口口口口 |①---|
①①口口 |----|
②②口口 |②---|
口口口口 |----|
52
口口口口 |①---|
口口口口 |----|
口口口口 |----|
①①口口 |----|
53
口口口口 |①---|
口口口口 |----|
口口②② |②---|
口口①① |----|
54
口口口口 |①---|
口口①① |----|
口口口口 |----|
口口口口 |----|
55
口①②口 |①---|
口口口口 |----|
口口口口 |②---|
口口口口 |----|
56
口口口口 |①---|
口①②口 |----|
口口口口 |②---|
口口口口 |----|
57
口口口口 |①---|
口口口口 |----|
口①②口 |②---|
口口口口 |----|
58
口口口口 |①---|
口口口口 |----|
口口口口 |②---|
口①②口 |----|
59
口口口口 |①---|
口口①① |----|
口口②② |②---|
口口口口 |----|
60
口口口口 |①---|
口口口口 |----|
口口口口 |----|
口口①① |----|
61
口口口口 |①---|
口口口口 |----|
②②口口 |②---|
①①口口 |----|
62
口口口口 |①---|
①①口口 |----|
口口口口 |----|
口口口口 |----|
63
口口口口 |①---|
口口口口 |----|
口①①口 |----|
口口口口 |----|
64
口口口口 |①---|
口①①口 |----|
口口口口 |----|
口口口口 |----|
65
①口口口 |①---|
②口口口 |----|
口口口口 |②---|
口口口口 |----|
66
口口口口 |①---|
口口口口 |----|
①口口口 |②---|
②口口口 |----|
67
口口口口 |①---|
口口口口 |----|
口①①口 |----|
口口口口 |----|
68
口口口口 |----|
口口口口 |----|
口口口口 |----|
口口口口 |----|
69
口口口口 |①---|
口①口口 |--②-|
口口②口 |----|
口③口口 |③---|
70
口口口口 |--①-|
口②②口 |--②-|
口①①口 |----|
口口口口 |----|

accuracy: 99.5%
最終更新:2023年06月21日 11:15