アットウィキロゴ
セカイがカフェになっちゃった!
Petit Rabbit's with beans

ADVANCED

Level: 6
BPM: 158
Notes: 422

1
口口口口 |----|
口口口口 |----|
口口口口 |----|
口口口口 |----|
2
口口口口 |----|
①口口② |----|
③口口④ |①-②-|
口口口口 |③-④-|
3
口口口口 |①-②-|
口③⑥口 |③---|
口②⑤口 |④-⑤-|
口①④口 |⑥---|
4
口口口口 |①-②-|
①口口口 |③-④-|
②④④口 |--⑤-|
③⑤⑤口 |----|
5
口口口口 |①-②-|
⑥口口③ |③---|
⑤口口② |④-⑤-|
④口口① |⑥---|
6
口口口口 |①-②-|
口②①口 |③-④-|
口④③口 |--⑤-|
口⑤⑤口 |----|
7
②口口③ |①---|
口①①口 |②-③-|
口④④口 |----|
口口口口 |--④-|
8
口口口口 |①---|
②口口③ |②-③-|
口口口口 |----|
④①①口 |--④-|
9
口⑤⑤口 |①-②-|
口⑥⑥口 |③-④-|
口口④③ |--⑤-|
口①②口 |--⑥-|
10
①口口② |----|
口③③口 |--①-|
口口口口 |②---|
口口口口 |③---|
11
②③口④ |①---|
口口口口 |--②-|
口①①口 |③---|
口口口口 |--④-|
12
口口①口 |①-②-|
口②③口 |③-④-|
口④⑤口 |⑤---|
口口口口 |----|
13
⑦⑦口口 |①-②-|
①②③④ |③-④-|
口⑤⑥口 |--⑤-|
口口口口 |⑥-⑦-|
14
④口①① |--①-|
口②③口 |--②-|
口口口口 |③---|
口口口口 |--④-|
15
口①③② |①---|
口④口口 |--②-|
口口口口 |③---|
口口口口 |--④-|
16
口口口口 |①-②-|
口口①口 |③-④-|
口②③口 |⑤---|
口④⑤口 |----|
17
④⑦⑦口 |①-②-|
③口口口 |③-④-|
②口口⑥ |--⑤-|
①口口⑤ |⑥-⑦-|
18
口口口口 |--①-|
②口口③ |--②-|
口①①口 |③---|
口口口口 |----|
19
口口口口 |--①-|
⑥口口口 |②-③-|
口⑤⑤口 |④-⑤-|
①②③④ |--⑥-|
20
口②①口 |--①-|
口口③口 |②-③-|
口口口口 |----|
口口口口 |----|
21
口口口口 |--①-|
口口口⑥ |②-③-|
口⑤⑤口 |④-⑤-|
④③②① |--⑥-|
22
④①②口 |--①-|
口③口口 |②-③-|
口口口口 |----|
口口口口 |--④-|
23
口①③② |①---|
口④④口 |②-③-|
口口口口 |--④-|
口⑤⑤口 |--⑤-|
24
口口口口 |--①-|
⑦⑥⑤④ |②-③-|
①②③口 |④-⑤-|
口口口口 |⑥-⑦-|
25
口口口口 |--①-|
口⑥③口 |②-③-|
口⑤②口 |--④-|
口④①口 |⑤-⑥-|
26
④③②① |--①-|
口⑤⑤口 |②-③-|
口口口口 |④---|
口口口口 |⑤---|
27
口⑤⑤口 |--①-|
②③④口 |--②-|
口口①口 |③-④-|
口口口口 |--⑤-|
28
口口口① |--①-|
口口口② |②-③-|
口口口③ |----|
口口口口 |----|
29
口口口口 |--①-|
③②①口 |②-③-|
口⑤④口 |④-⑤-|
口⑥⑥口 |--⑥-|
30
口口口口 |--①-|
①口口口 |②-③-|
②口口口 |----|
③口口口 |----|
31
口口口口 |①---|
②口口③ |②-③-|
口①①口
口口口口

口口口口
口④④口
口⑤⑤口 |--④-|
口口口口 |--⑤-|
32
①口口② |--①-|
③口口④ |②-③-|
⑤口口⑥ |④-⑤-|
⑦口口口 |⑥-⑦-|
33
口口口口 |--①-|
口⑥③口 |②-③-|
口⑤②口 |--④-|
口④①口 |⑤-⑥-|
34
口口口① |①-②-|
②口口口 |③-④-|
口口口③ |⑤---|
④口口⑤ |----|
35
口口⑥⑥ |①-②-|
口⑤⑦⑦ |③-④-|
口③④口 |⑤-⑥-|
口①②口 |--⑦-|
36
⑥口口⑥ |--①-|
①口口口 |②-③-|
③口口② |④-⑤-|
⑤口口④ |--⑥-|
37
⑥②①⑥ |①-②-|
⑦④③⑦ |③-④-|
口口⑤口 |⑤-⑥-|
口口口口 |--⑦-|
38
⑥①②⑥ |--①-|
口③④口 |②-③-|
口⑤口口 |④-⑤-|
口口口口 |--⑥-|
39
口①①口 |①---|
②口口③ |②-③-|
口⑤口口 |--④-|
口④④口 |--⑤-|
40
口口口口 |--①-|
口③②① |②-③-|
④⑤口口 |④-⑤-|
口口⑥⑦ |⑥-⑦-|
41
口①①口 |①---|
③③口口 |②-③-|
④④②口 |--④-|
⑤⑤口口 |--⑤-|
42
口②①口 |--①-|
口④③口 |②-③-|
口⑥⑤口 |④-⑤-|
口口⑦口 |⑥-⑦-|
43
①口口② |①-②-|
③⑥⑥④ |③-④-|
⑤⑦⑦口 |⑤-⑥-|
口口口口 |--⑦-|
44
③口口② |----|
口①①④ |--①-|
口口口口 |--②-|
口口口口 |③-④-|
45
口口⑥⑥ |①-②-|
口⑤⑦⑦ |③-④-|
口③④口 |⑤-⑥-|
口①②口 |--⑦-|
46
口①①口 |----|
口②口口 |--①-|
口口③口 |--②-|
口④口口 |③-④-|
47
①口口① |①---|
②口口② |--②-|
③口口③ |----|
口口口口 |③---|
48
口口口口 |①---|
口①①口 |②-③-|
④②口④ |--④-|
口口③口 |----|
49
口口口④ |①--②|
⑤③口口 |--③-|
口口②⑥ |④-⑤-|
⑦①口口 |⑥-⑦-|
50
②①①口 |①---|
③口口口 |----|
④①①口 |②-③-|
⑤口口口 |④-⑤-|
51
口口口口 |①-②-|
口⑥③口 |③---|
口⑤②口 |④-⑤-|
口④①口 |⑥---|
52
口⑤⑤① |①-②-|
②口口口 |③-④-|
口口口③ |--⑤-|
④口口口 |----|
53
口口口口 |①-②-|
口⑥③口 |③---|
口⑤②口 |④-⑤-|
口④①口 |⑥---|
54
口口口① |①-②-|
②口口口 |③-④-|
口口口③ |--⑤-|
④⑤⑤口 |----|
55
口⑤⑤④ |①---|
②③口口 |②-③-|
口①①口 |--④-|
口口口口 |--⑤-|
56
⑤口口④ |--①-|
口口①口 |②-③-|
口②口口 |④---|
④口③⑤ |⑤---|
57
口④④口 |①---|
②口①③ |--②-|
③①口② |③---|
口口口口 |--④-|
58
④口口口 |--①-|
口①口⑤ |②-③-|
⑥口②口 |④-⑤-|
口③口⑦ |⑥-⑦-|
59
口口口口 |①-②-|
口⑥③口 |③---|
口⑤②口 |④-⑤-|
口④①口 |⑥---|
60
口⑤⑤① |①-②-|
②口口口 |③-④-|
口口口③ |--⑤-|
④口口口 |----|
61
口口口口 |①-②-|
口⑥③口 |③---|
口⑤②口 |④-⑤-|
口④①口 |⑥---|
62
口口口① |①-②-|
②口口口 |③-④-|
口口口③ |--⑤-|
④⑤⑤口 |----|
63
②口口③ |①---|
口①①口 |②-③-|
口④④口 |----|
口口口口 |--④-|
64
口口口口 |①---|
②口口③ |②-③-|
口口口口 |----|
④①①口 |--④-|
65
口⑤⑤口 |①-②-|
口⑥⑥口 |③-④-|
口口④③ |--⑤-|
口①②口 |--⑥-|
66
①口口口 |----|
②口口口 |----|
③口口口 |①-②-|
口口口口 |③---|
67
口口口口 |①---|
口①①口 |②-③-|
口口②口 |----|
口③口口 |----|
68
口口口口 |----|
口口口口 |----|
口口口口 |----|
口口口口 |----|
69
口口口口 |①---|
①口口① |--②-|
②口口② |----|
③口口③ |③---|
70
③③③③ |--①-|
口①①口 |②-③-|
口②②口 |----|
口口口口 |----|

accuracy: 99.5%
最終更新:2023年06月21日 11:36