アットウィキロゴ
セカイがカフェになっちゃった!
Petit Rabbit's with beans

EXTREME

Level: 8
BPM: 158
Notes: 575

1
口口口口 |----|
口口口口 |----|
口口口口 |----|
口口口口 |----|
2
口口口① |----|
口口②口 |----|
口口口③ |①-②-|
口口④口 |③-④-|
3
口口口口 |①-②-|
③口口⑥ |③---|
②口口⑤ |④-⑤-|
①口口④ |⑥---|
4
①口口口 |①-②-|
口②③口 |③-④-|
口口口④ |--⑤-|
口⑤⑤口 |----|
5
口口口口 |①-②-|
③口口⑥ |③---|
②口口⑤ |④-⑤-|
①口口④ |⑥---|
6
①②③④ |①-②-|
口口口口 |③-④-|
口口口口 |--⑤-|
口⑤⑤口 |----|
7
口口口口 |①---|
②①①③ |②-③-|
口①①口
②口口③

④口④口
口④口口
口口口口 |----|
口口口口 |--④-|
8
口②口② |①---|
口口②口 |②-③-|
③①③①
口③①口

口口口口
口口口口
口口口口 |----|
口口④口 |--④-|
9
⑥口口⑤ |①-②-|
口③②① |③-④-|
口口④口 |--⑤-|
口⑥⑤口 |--⑥-|
10
口④口⑤ |--①-|
②口③① |②-③-|
②③口① |④---|
⑤口④口 |⑤---|
11
①口③口 |①---|
口口口③ |--②-|
④口口② |③---|
口④②① |--④-|
12
③①口② |①-②-|
①口口口 |③-④-|
口⑤④口 |⑤---|
口口口口 |----|
13
①⑦口⑦ |①-②-|
口口口② |③-④-|
③口⑤口 |--⑤-|
口⑥口④ |⑥-⑦-|
14
③口③口 |--①-|
①③①③ |--②-|
④②口② |③---|
②④②口 |--④-|
15
④①③口 |①---|
①口口③ |--②-|
口口口② |③---|
口口②口 |--④-|
16
口⑤⑤口 |①-②-|
口②①口 |③-④-|
口④③口 |⑤---|
口口口口 |----|
17
⑦④口口 |①-②-|
③口⑦口 |③-④-|
②⑦口⑥ |--⑤-|
口①⑤⑦ |⑥-⑦-|
18
口②口① |--①-|
口①口② |--②-|
②口①口
①口②口

口口③口
③⑥⑦口
口④⑤③ |③---|
口③口口 |④⑤⑥⑦|
19
①⑦口⑥ |①-②-|
口口口口 |③-④-|
⑦口⑥口 |⑤-⑥-|
⑤④③② |--⑦-|
20
口口口口 |--①-|
口②①③ |②-③-|
口④⑤口 |--④-|
口口③口 |⑤---|
21
口口口口 |①-②-|
口口①口 |③-④-|
口口口①
②③④口

⑥口⑦口
口口口口
口⑥口⑦ |⑤-⑥-|
口口口⑤ |--⑦-|
22
口口口口 |--①-|
口①②口 |②-③-|
口③口口 |----|
④口口口 |--④-|
23
口口口口 |①---|
①④④③ |②-③-|
口口口口 |--④-|
口⑤⑤② |--⑤-|
24
⑤口口⑥ |--①-|
③⑦⑦④ |②-③-|
①口口② |④-⑤-|
口口口口 |⑥-⑦-|
25
口⑥⑤④ |--①-|
口口口口 |②-③-|
口口口口 |--④-|
①②③口 |⑤-⑥-|
26
口口口口 |--①-|
①②③④ |②-③-|
④③②① |④---|
口⑤⑤口 |⑤---|
27
①口口② |--①-|
口③口⑥ |②-③-|
口口④口 |④-⑤-|
口⑤⑥口 |--⑥-|
28
③口口口 |--①-|
口②①④ |②-③-|
口③⑤口 |--④-|
口口口⑥ |⑤-⑥-|
29
口①口口 |--①-|
②口口③ |②-③-|
口口口口
口口口口

口⑥⑥口
口口口口
口口④口 |④-⑤-|
口⑤口口 |--⑥-|
30
⑤口⑥口 |--①-|
③①④口 |②-③-|
口⑤②⑥ |--④-|
口③口④ |⑤-⑥-|
31
口①口① |①---|
口③口口 |②-③-|
口口②口
口口口口

口⑤口⑤
口口口口
口口口口 |--④-|
④口口口 |--⑤-|
32
口⑥⑦口 |--①-|
⑥②①⑦ |②-③-|
④口③⑤ |④-⑤-|
口④⑤口 |⑥-⑦-|
33
口口口口 |--①-|
口⑥③口 |②-③-|
口②⑤口 |--④-|
①口口④ |⑤-⑥-|
34
口口口① |①-②-|
口口口② |③-④-|
口口口③
口口口④

口口口口
⑥⑦⑧⑨
口⑤⑤口 |⑤---|
口口口口 |⑥⑦⑧⑨|
35
⑦口口⑦ |①-②-|
⑤⑥口口 |③-④-|
③④口口 |⑤-⑥-|
①②口口 |--⑦-|
36
口口口口 |--①-|
口口口⑤ |②-③-|
口口④③ |④-⑤-|
⑥口②① |--⑥-|
37
①②口⑦ |①-②-|
③④口口 |③-④-|
⑤⑥口口 |⑤-⑥-|
口⑦口口 |--⑦-|
38
口口①口 |--①-|
口口③② |②-③-|
口口⑤④ |④-⑤-|
口⑥⑥口 |--⑥-|
39
①口口① |①---|
口②③口 |②-③-|
口口口④ |--④-|
口⑤口口 |--⑤-|
40
③口口④ |--①-|
②口⑤口 |②-③-|
①口口⑥ |④-⑤-|
口口⑦口 |⑥-⑦-|
41
③①口口 |①---|
口口口口 |②-③-|
①③口口
口口口②

口⑤⑤口
口口口口
口口口口 |--④-|
④口口口 |--⑤-|
42
口口口⑦ |--①-|
口口⑥① |②-③-|
②⑤口③ |④-⑤-|
④口口口 |⑥-⑦-|
43
口口口口 |①-②-|
③口口⑥ |③-④-|
②⑦⑦⑤ |⑤-⑥-|
口①④口 |--⑦-|
44
①口口① |----|
口②③口 |--①-|
口④口口 |--②-|
口口口口 |③-④-|
45
口⑥①口 |①-②-|
口口⑦② |③-④-|
⑥口口③ |⑤-⑥-|
口⑤④⑦ |--⑦-|
46
口①口口 |----|
口③②口 |--①-|
①口④口 |--②-|
口口口口 |③-④-|
47
④口①② |①---|
③口口⑤ |②-③-|
口口口① |--④-|
口③⑤口 |⑤---|
48
口①①口 |①---|
口②口口 |②-③-|
口口③口 |--④-|
口④口口 |----|
49
①口口③ |①--②|
口②口口 |--③-|
⑦口②⑥ |④-⑤-|
③⑤④① |⑥-⑦-|
50
④①①口 |①-②-|
口②②⑤ |③---|
⑥③③口 |④-⑤-|
口口口⑦ |⑥-⑦-|
51
⑥③⑥③ |①-②-|
③⑥③⑥ |③---|
④①⑤② |④-⑤-|
①④②⑤ |⑥---|
52
⑤①口口 |①-②-|
口口②口 |③-④-|
口③口口 |--⑤-|
口口④⑤ |----|
53
⑥③⑥③ |①-②-|
③⑥③⑥ |③---|
④①⑤② |④-⑤-|
①④②⑤ |⑥---|
54
⑤①口口 |①-②-|
口口②口 |③-④-|
口③口口 |--⑤-|
口口④⑤ |----|
55
口口口口 |①---|
②口口③ |②-③-|
口①①口 |--④-|
⑤④④口 |--⑤-|
56
口口③⑤ |--①-|
口②⑤口 |②-③-|
④口①口 |④---|
口④口口 |⑤---|
57
口①口口 |①---|
①口口口 |②-③-|
②口口③
口口③口

口⑥⑥口
口口口口
口口④口 |④-⑤-|
⑤口口④ |--⑥-|
58
①⑤口① |--①-|
④口⑥④ |②-③-|
口②②口 |④-⑤-|
⑦③③口 |⑥-⑦-|
59
③⑥③⑥ |①-②-|
⑥③⑥③ |③---|
②⑤①④ |④-⑤-|
⑤②④① |⑥---|
60
口口①⑤ |①-②-|
口②口口 |③-④-|
口口③口 |--⑤-|
⑤④口口 |----|
61
③⑥③⑥ |①-②-|
⑥③⑥③ |③---|
②⑤①④ |④-⑤-|
⑤②④① |⑥---|
62
口口①⑤ |①-②-|
口②口口 |③-④-|
口口③口 |--⑤-|
⑤④口口 |----|
63
口口口口 |①---|
③①①② |②-③-|
口①①口
③口口②

④口④口
口④口口
口口口口 |----|
口口口口 |--④-|
64
口②口② |①---|
口口②口 |②-③-|
③①③①
口③①口

口口口口
口口口口
口口口口 |----|
口口④口 |--④-|
65
⑥口口⑤ |①-②-|
口③②① |③-④-|
口口④口 |--⑤-|
口⑥⑤口 |--⑥-|
66
口口口口 |--①-|
②口③① |②---|
②④口① |③-④-|
口口⑤口 |⑤---|
67
①口口口 |①---|
口②口⑤ |②-③-|
①口口④ |--④-|
口口口③ |--⑤-|
68
口口口口 |--①-|
口⑨⑩口 |②-③-|
③⑦⑧④ |④-⑤⑥|
①⑤⑥② |⑦⑧⑨⑩|
69
口①②口 |①---|
①口口② |--②-|
口口口口 |----|
③口口③ |③---|
70
口②①口 |--①-|
①③③② |②-③-|
②③③① |----|
口①②口 |----|

accuracy: 99.5%
最終更新:2023年06月21日 11:45