アットウィキロゴ
ロールプレイングゲーム
そらまふうらさか

BASIC

Level: 3
BPM: 162
Notes: 278

1
口口口口 |----|
口口口口 |----|
口口口口 |----|
口口口口 |----|
2
口口口口 |----|
口口口口 |----|
口口口口 |----|
口口口口 |----|
3
口口口口 |①---|
口口口口 |----|
口口口口 |----|
①口口口 |----|
4
口口口口 |①---|
口口口口 |----|
口口口口 |----|
口①口口 |----|
5
口口口口 |①---|
口口口口 |----|
口口口口 |----|
口口①口 |----|
6
口口口口 |①---|
口口口口 |----|
口口口口 |----|
口口口① |----|
7
口口口口 |①---|
口口口口 |----|
口口口口 |----|
口口口① |----|
8
口口口口 |①---|
口口口口 |----|
口口口口 |----|
口口①口 |----|
9
口口口口 |①---|
口口口口 |----|
口口口口 |----|
口①口口 |----|
10
口口口口 |①---|
口口口口 |----|
口②②口 |----|
①口口口 |②---|
11
口口口口 |①---|
①②③④ |②---|
口口口口 |③---|
口口口口 |④---|
12
口口口口 |①---|
口口口口 |②---|
③②①口 |③---|
口口口口 |----|
13
口口口口 |①---|
①②③④ |②---|
口口口口 |③---|
口口口口 |④---|
14
口口口口 |①---|
口口口口 |②---|
口②①口 |③---|
口④③口 |④---|
15
口口口口 |①---|
①②③④ |②---|
口口口口 |③---|
口口口口 |④---|
16
口口口口 |①---|
口口口口 |②---|
③②①口 |③---|
口口口口 |----|
17
口口口口 |①---|
口口口口 |②---|
口③④口 |③---|
口①②口 |④---|
18
③口口③ |①---|
口①②口 |②---|
口口口口 |③---|
口口口口 |----|
19
口③④口 |①---|
②口口② |②---|
口①口口 |③---|
口口口口 |④---|
20
口口口口 |①---|
口①②口 |②---|
口③口口 |③---|
口口口口 |----|
21
口口口口 |①---|
①②③④ |②---|
口口口口 |③---|
口口口口 |④---|
22
口口口口 |----|
口口口口 |①---|
口①②口 |②---|
口③口口 |③---|
23
口③④口 |①---|
②口口口 |②---|
口①口口 |③---|
口口口口 |④---|
24
口口口口 |①---|
口①②口 |②---|
口③口口 |③---|
口口口口 |----|
25
①口口口 |①---|
②口口口 |②---|
③口口口 |③---|
④口口口 |④---|
26
口④口口 |①---|
口③口口 |②---|
口②口口 |③---|
口①口口 |④---|
27
口口①口 |①---|
口口②口 |②---|
口口③口 |③---|
口口④口 |④---|
28
口口口口 |①---|
口口口③ |②---|
口口口② |③---|
口④④① |④---|
29
口③④口 |①---|
②口口口 |②---|
口①口口 |③---|
口口口口 |④---|
30
口口口口 |①---|
口①②口 |②---|
口③口口 |③---|
口口口口 |----|
31
口口口口 |①---|
①②③④ |②---|
口口口口 |③---|
口口口口 |④---|
32
口口口口 |----|
口口口口 |①---|
口①②口 |②---|
口③口口 |③---|
33
口③④口 |①---|
②口口口 |②---|
口①口口 |③---|
口口口口 |④---|
34
口口口口 |①---|
口①②口 |②---|
口③口口 |③---|
口口口口 |----|
35
①口口口 |①---|
②口口口 |②---|
③口口口 |③---|
④口口口 |④---|
36
口④口口 |①---|
口③口口 |②---|
口②口口 |③---|
口①口口 |④---|
37
口口口口 |①---|
口口口口 |----|
口①①口 |②---|
口②②口 |----|
38
口口口口 |①---|
口口口口 |----|
②口口② |②---|
①口口① |----|
39
口口口口 |①---|
口①①口 |----|
口②②口 |②---|
口口口口 |----|
40
口口口口 |①---|
②口口② |----|
①口口① |②---|
口口口口 |----|
41
口①①口 |①---|
口②②口 |----|
口口口口 |②---|
口口口口 |----|
42
②口口② |①---|
①口口① |----|
口口口口 |②---|
口口口口 |----|
43
口①口口 |①---|
口②口口 |②---|
口③口口 |③---|
口④口口 |④---|
44
口④④口 |①---|
口口③口 |②---|
口口②口 |③---|
口口①口 |④---|
45
口口口口 |①---|
口①②口 |②---|
口③④口 |③---|
口口口口 |④---|
46
口口口口 |①---|
①口口② |②---|
③口口④ |③---|
口口口口 |④---|
47
口口口口 |①---|
口①②口 |②---|
口③④口 |③---|
口口口口 |④---|
48
口口口口 |①---|
①口口② |②---|
③口口④ |③---|
口口口口 |④---|
49
口④口口 |①---|
口③口口 |②---|
口②口口 |③---|
口①口口 |④---|
50
口口①口 |①---|
口口②口 |②---|
口口③口 |③---|
口口④口 |④---|
51
口口口口 |①---|
③口口④ |②---|
①口口② |③---|
口口口口 |④---|
52
口①①口 |①---|
口口口口 |----|
口口口口 |----|
口口口口 |----|
53
口口口口 |①---|
①①口口 |②---|
②②口口 |③---|
口④③口 |④---|
54
口口口③ |----|
口口口② |①---|
口口口① |②---|
口口口口 |③---|
55
口口口口 |①---|
口②①口 |②---|
口④③口 |③---|
口口口口 |④---|
56
口口口口 |①---|
①口口① |②---|
②口口② |③---|
③口口③ |----|
57
口口口口 |①---|
口口①① |②---|
口口②② |③---|
口③④口 |④---|
58
③口口口 |①---|
②口口口 |②---|
①口口口 |③---|
口口口口 |----|
59
口口口口 |①---|
口①②口 |②---|
口③④口 |③---|
口口口口 |④---|
60
口口口口 |①---|
口口口口 |----|
口口口口 |----|
口①口口 |----|
61
口口口口 |①---|
①①口口 |②---|
②②口口 |③---|
口④③口 |④---|
62
口口口③ |----|
口口口② |①---|
口口口① |②---|
口口口口 |③---|
63
口口口口 |①---|
口②①口 |②---|
口④③口 |③---|
口口口口 |④---|
64
口口口口 |①---|
①口口① |②---|
②口口② |③---|
③口口③ |----|
65
口口口口 |①---|
口口①① |②---|
口口②② |③---|
口③④口 |④---|
66
③口口口 |①---|
②口口口 |②---|
①口口口 |③---|
口口口口 |----|
67
口口口口 |①---|
口①②口 |②---|
口③④口 |③---|
口口口口 |④---|
68
口口口口 |①---|
①口口① |②---|
②口口② |③---|
③口口③ |----|
69
口口口口 |①---|
①②③④ |②---|
口口口口 |③---|
口口口口 |④---|
70
口口口口 |①---|
口口口口 |②---|
③②①口 |③---|
口口口口 |----|
71
口口口口 |①---|
①②③④ |②---|
口口口口 |③---|
口口口口 |④---|
72
口口口口 |①---|
口口口口 |②---|
口②①口 |③---|
口④③口 |④---|
73
口口口口 |①---|
①②③④ |②---|
口口口口 |③---|
口口口口 |④---|
74
口口口口 |①---|
口口口口 |②---|
③②①口 |③---|
口口口口 |----|
75
口口口口 |①---|
口口口口 |②---|
口③④口 |③---|
口①②口 |④---|
76
③口口③ |①---|
口①②口 |②---|
口口口口 |③---|
口口口口 |----|
77
口口口口 |①---|
口①①口 |----|
口②②口 |----|
口②②口 |--②-|

accuracy: 99.5%
最終更新:2023年06月18日 03:44