アットウィキロゴ
ロールプレイングゲーム
そらまふうらさか

ADVANCED

Level: 6
BPM: 162
Notes: 526

1
口口口口 |----|
口口口口 |----|
口口口口 |----|
口口口口 |----|
2
口口口口 |----|
口口口口 |----|
口口口口 |----|
口口口口 |----|
3
口口口口 |①---|
口口④口 |--②-|
口③②口 |③---|
①口口口 |--④-|
4
口口口② |①---|
③①口④ |--②-|
⑤口口⑥ |③-④-|
口口口口 |⑤-⑥-|
5
口口口口 |①---|
口口④口 |--②-|
口③②口 |③---|
①口口口 |--④-|
6
口口口② |①---|
③①口④ |--②-|
⑤口口⑥ |③-④-|
口口口口 |⑤-⑥-|
7
口口口口 |①---|
口口④口 |--②-|
口③②口 |③---|
①口口口 |--④-|
8
口口口② |①---|
③①口④ |--②-|
⑤口口⑥ |③-④-|
口口口口 |⑤-⑥-|
9
口口口口 |①---|
口③②口 |--②-|
口⑤④口 |③-④-|
①口⑥口 |⑤-⑥-|
10
口口口口 |①-②-|
①⑥⑥② |③-④-|
③⑥⑥④ |⑤---|
⑤口口口 |⑥---|
11
①①②② |①---|
口口口口 |②---|
口③③口 |③---|
口④⑤口 |④-⑤-|
12
口口口口 |①-②-|
①②③④ |③-④-|
口⑤⑤口 |⑤---|
口口口口 |----|
13
①①②② |①---|
口口口口 |②---|
口③③口 |③---|
口④⑤口 |④-⑤-|
14
口口口口 |①-②-|
①②③④ |③-④-|
口⑤⑥口 |⑤-⑥-|
口⑦口口 |⑦---|
15
①①②② |①---|
口口口口 |②---|
口③③口 |③---|
口④⑤口 |④-⑤-|
16
口口口口 |①-②-|
①②③④ |③-④-|
口⑤⑤口 |⑤---|
口口口口 |----|
17
口口口口 |①-②-|
口⑦⑧口 |③-④-|
口⑤⑥口 |⑤-⑥-|
①②③④ |⑦-⑧-|
18
①①②② |①---|
口口口口 |②---|
口③③口 |③---|
口口口口 |----|
19
②②②② |①---|
口③④口 |②---|
口⑤⑥口 |③-④-|
口①口口 |⑤-⑥-|
20
①口口⑤ |①-②-|
②口口⑥ |③-④-|
③口口⑦ |⑤-⑥-|
④口口⑧ |⑦-⑧-|
21
②口口④ |①-②-|
⑥⑦⑧口 |③-④-|
口①③口 |⑤-⑥-|
口⑤口口 |⑦-⑧-|
22
口口口① |--①-|
口口口② |②-③-|
口口④③ |④-⑤-|
口⑥⑤口 |⑥---|
23
口口口口 |①---|
①③④② |②---|
口⑤⑥口 |③-④-|
口口口口 |⑤-⑥-|
24
①口口⑤ |①-②-|
②口口⑥ |③-④-|
③口口⑦ |⑤-⑥-|
④口口⑧ |⑦-⑧-|
25
②口口④ |①-②-|
⑥口口⑧ |③-④-|
口①③口 |⑤-⑥-|
口⑤⑦口 |⑦-⑧-|
26
口①②口 |①-②-|
口③④口 |③-④-|
口⑤⑥口 |⑤-⑥-|
口⑦⑧口 |⑦-⑧-|
27
①口口② |①-②-|
口⑤⑥口 |③-④-|
口⑦⑧口 |⑤-⑥-|
③口口④ |⑦-⑧-|
28
①②③④ |①-②-|
口⑤⑤口 |③-④-|
口口口口 |⑤---|
口⑥⑥口 |⑥---|
29
②口口口 |①---|
口②口口 |②---|
口①口口
①口口口

口口口口
口口口口
⑥⑤④③ |③-④-|
口口口口 |⑤-⑥-|
30
⑤口口① |①-②-|
⑥口口② |③-④-|
⑦口口③ |⑤-⑥-|
⑧口口④ |⑦-⑧-|
31
③④②① |①-②-|
⑦⑧⑥⑤ |③-④-|
口口口口 |⑤-⑥-|
口口口口 |⑦-⑧-|
32
口⑥口口 |--①-|
⑤口⑦口 |②-③-|
口②口④ |④-⑤-|
①口③口 |⑥-⑦-|
33
②口口口 |①---|
口口口口 |②---|
口①口口
口口口口

口口口口
口口口口
⑥⑤④③ |③-④-|
口口口口 |⑤-⑥-|
34
⑤口口① |①-②-|
⑥口口② |③-④-|
⑦口口③ |⑤-⑥-|
⑧口口④ |⑦-⑧-|
35
③④②① |①-②-|
⑦⑧⑥⑤ |③-④-|
口口口口 |⑤-⑥-|
口口口口 |⑦-⑧-|
36
口口口口 |①-②-|
口口口口 |③-④-|
③④②① |⑤-⑥-|
⑦⑧⑥⑤ |⑦-⑧-|
37
④③②① |①---|
口口口口 |②---|
口口口口 |③---|
口口口口 |④---|
38
口口口口 |①---|
口②①口 |②---|
口口口口
口口口口

口口口口
④口④口
口④③口 |③---|
④口④口 |④---|
39
④③②① |①---|
口口口口 |②---|
口口口口 |③---|
口口口口 |④---|
40
口口口口 |①---|
口②①口 |②---|
口口口口
口口口口

口口口口
④口④口
口④③口 |③---|
④口④口 |④---|
41
④③②① |①---|
口口口口 |②---|
口口口口 |③---|
口口口口 |④---|
42
口口口口 |①---|
口②①口 |②---|
口口③口 |③---|
口④④口 |④---|
43
口口口口 |①-②-|
口口口口 |③-④-|
①②③④ |⑤-⑥-|
⑧⑦⑥⑤ |⑦-⑧-|
44
⑤⑦⑦⑤ |①-②-|
口③④口 |③-④-|
口①②口 |⑤-⑥-|
⑥口口⑥ |⑦---|
45
④口口口 |--①-|
⑤口③口 |②-③-|
⑥②口口 |④--⑤|
口①口口 |--⑥-|
46
口口口④ |--①-|
口③口⑤ |②-③-|
口口②⑥ |④--⑤|
口口①口 |--⑥-|
47
④口口口 |--①-|
⑤口口口 |②-③-|
⑥③口口 |④--⑤|
口①②口 |--⑥-|
48
口口口④ |--①-|
口口口⑤ |②-③-|
口口③⑥ |④--⑤|
口②①口 |--⑥-|
49
③口口口 |--①-|
口口口④ |②---|
⑤口②口 |③-④-|
口①口⑥ |⑤-⑥-|
50
口口①口 |①-②-|
口②口口 |③-④-|
口⑥③口 |⑤---|
口④⑤口 |--⑥-|
51
②⑧⑧口 |①-②-|
口口①③ |③-④-|
④口⑦口 |⑤-⑥-|
口⑥口⑤ |⑦-⑧-|
52
口口口口 |----|
口口口口 |----|
口口口口 |----|
口口口口 |----|
53
①口口① |①---|
口⑤⑥口 |②---|
口③④口 |③-④-|
②口口② |⑤-⑥-|
54
④口口① |--①-|
⑤口口② |②-③-|
⑥口口③ |④-⑤-|
口口口口 |⑥---|
55
③口④口 |①---|
口①②口 |②---|
口①②口 |③-④-|
口⑤口⑥ |⑤-⑥-|
56
⑤口⑤口 |①-②-|
⑥②⑦④ |③-④-|
①⑥③⑦ |⑤-⑥-|
口口口口 |⑦---|
57
口②②口 |①---|
③口⑤口 |②---|
口④口⑥ |③-④-|
口①①口 |⑤-⑥-|
58
①口口② |①-②-|
口⑤⑤口 |③-④-|
⑥⑤⑤口 |⑤---|
③口口④ |--⑥-|
59
④⑥口⑤ |①-②-|
②口⑦③ |③-④-|
口⑧口① |⑤-⑥-|
口口口口 |⑦-⑧-|
60
口口口口 |①---|
口口口口 |----|
口口口口 |----|
口口①口 |----|
61
①口口① |①---|
口⑤⑥口 |②---|
口③④口 |③-④-|
②口口② |⑤-⑥-|
62
④口口① |--①-|
⑤口口② |②-③-|
⑥口口③ |④-⑤-|
口口口口 |⑥---|
63
③口④口 |①---|
口①②口 |②---|
口①②口 |③-④-|
口⑤口⑥ |⑤-⑥-|
64
⑤口⑤口 |①-②-|
⑥②⑦④ |③-④-|
①⑥③⑦ |⑤-⑥-|
口口口口 |⑦---|
65
口②②口 |①---|
③口⑤口 |②---|
口④口⑥ |③-④-|
口①①口 |⑤-⑥-|
66
①口口② |①-②-|
口⑤⑤口 |③-④-|
⑥⑤⑤口 |⑤---|
③口口④ |--⑥-|
67
④口口⑤ |①-②-|
②⑥口③ |③-④-|
口口⑦① |⑤-⑥-|
口口口口 |⑦---|
68
口口口口 |①---|
口③③口 |②---|
①③③② |③---|
①口口② |----|
69
①①②② |①---|
口口口口 |②---|
口③③口 |③---|
口④⑤口 |④-⑤-|
70
口口口口 |①-②-|
①②③④ |③-④-|
口⑤⑤口 |⑤---|
口口口口 |----|
71
①①②② |①---|
口口口口 |②---|
口③③口 |③---|
口④⑤口 |④-⑤-|
72
口口口口 |①-②-|
①②③④ |③-④-|
口⑤⑥口 |⑤-⑥-|
口⑦口口 |⑦---|
73
①①②② |①---|
口口口口 |②---|
口③③口 |③---|
口④⑤口 |④-⑤-|
74
口口口口 |①-②-|
①②③④ |③-④-|
口⑤⑤口 |⑤---|
口口口口 |----|
75
口口口口 |①-②-|
口⑦⑧口 |③-④-|
口⑤⑥口 |⑤-⑥-|
①②③④ |⑦-⑧-|
76
①①②② |①---|
口口口口 |②---|
口③③口 |③---|
口口口口 |----|
77
③④⑤⑥ |①-②-|
口口②口 |③④⑤⑥|
口口口口
口①口口

口口口口
⑩⑦口⑩
口口⑧口 |⑦-⑧-|
口⑨口口 |⑨-⑩-|

accuracy: 99.5%
最終更新:2023年06月18日 03:52