アットウィキロゴ
ロールプレイングゲーム
そらまふうらさか

EXTREME

Level: 9.4
BPM: 162
Notes: 732

1
口口口口 |----|
口口口口 |----|
口口口口 |----|
口口口口 |----|
2
口口口口 |----|
口口口口 |----|
口口口口 |----|
口口口口 |----|
3
口口口口 |①---|
口口口④ |--②-|
口③②口 |③---|
口①口口 |--④-|
4
②口①口 |①---|
④口③口 |--②-|
⑥口⑤口 |③-④-|
口口口口 |⑤-⑥-|
5
口口口口 |①---|
④口口口 |--②-|
口②③口 |③---|
口口①口 |--④-|
6
口①口② |①---|
口③口④ |--②-|
口⑤口⑥ |③-④-|
口口口口 |⑤-⑥-|
7
口口口口 |①---|
口口口④ |--②-|
口③②口 |③---|
口①口口 |--④-|
8
②口①口 |①---|
④口③口 |--②-|
⑥口⑤口 |③-④-|
口口口口 |⑤-⑥-|
9
口口口① |①---|
口②③口 |--②-|
口④⑤口 |③-④-|
口⑥口口 |⑤-⑥-|
10
①口口口 |①-②-|
口⑥⑥② |③-④-|
③⑥⑥口 |⑤---|
⑤口口④ |⑥---|
11
③①③口 |①---|
①口口口 |②---|
口口⑤② |③---|
口④②④ |④-⑤-|
12
口口口⑤ |①-②③|
①④③② |④-⑤-|
口口口口 |⑥---|
⑥口口口 |----|
13
③①③口 |①---|
①口口口 |②---|
口口⑤② |③---|
口④②④ |④-⑤-|
14
④口口⑤ |①-②-|
③口⑥口 |③-④-|
②⑦口口 |⑤-⑥-|
①口口口 |⑦---|
15
③①③口 |①---|
①口口口 |②---|
口口⑤② |③---|
口④②④ |④-⑤-|
16
口口口⑤ |①-②③|
①④③② |④-⑤-|
口口口口 |⑥---|
⑥口口口 |----|
17
口④口⑤ |①-②-|
⑥口③口 |③-④-|
⑦②口⑨ |⑤-⑥⑦|
⑧口①口 |⑧-⑨-|
18
①⑥口⑦ |①---|
⑧①⑤口 |②---|
④②⑨口 |③④⑤⑥|
口⑩②③ |⑦⑧⑨⑩|
19
②口②④ |①---|
⑤口口口 |②--③|
口③口⑥ |④-⑤-|
⑦口①口 |⑥-⑦-|
20
⑤口⑤口 |①-②-|
口④⑥⑦ |③-④-|
口③②⑧ |⑤-⑥-|
⑧口①口 |⑦-⑧-|
21
⑧口口⑨ |①-②③|
⑤⑥⑦口 |④-⑤⑥|
①口口口 |⑦-⑧-|
⑩④③② |⑨-⑩-|
22
口①⑥⑤ |--①-|
口②③④ |②-③-|
④③②口 |④-⑤-|
⑤⑥①口 |⑥---|
23
②口口⑤ |①---|
⑥④③口 |②--③|
口口口⑦ |④-⑤-|
口口口① |⑥-⑦-|
24
口⑤口口 |①-②-|
⑤⑥⑦⑧ |③-④-|
④③②口 |⑤-⑥-|
口口①口 |⑦-⑧-|
25
口⑦⑥⑤ |①-②③|
口⑫⑪口 |④-⑤⑥|
⑧⑨⑩① |⑦-⑧⑨|
②③④口 |⑩-⑪⑫|
26
④口③② |①-②③|
⑩口⑨⑧ |④-⑤⑥|
⑦口⑫⑪ |⑦-⑧⑨|
①口⑥⑤ |⑩-⑪⑫|
27
①口口② |①-②-|
口⑤⑥口 |③-④-|
口⑧⑦口 |⑤-⑥-|
④口口③ |⑦-⑧-|
28
①⑤⑤④ |①-②-|
口口口口 |③-④-|
口口口口 |⑤---|
②⑥⑥③ |⑥---|
29
③口④口 |①--②|
口⑤①① |③---|
口②⑥口 |④-⑤-|
口⑦口口 |⑥-⑦-|
30
口口口口 |①-②-|
③④口口 |③-④-|
②口口口
①口口口

口⑤口⑤
口口口⑥
口口⑧⑦ |⑤-⑥-|
⑧口口口 |⑦-⑧-|
31
⑥口口⑤ |①-②-|
口②③口 |③-④-|
口④口口 |⑤-⑥-|
⑧口①⑦ |⑦-⑧-|
32
口①口③ |--①-|
②①①口 |②-③-|
②②①①
口②②口

④⑦⑦口
口口口口
口口口口 |④-⑤-|
⑤口口⑥ |⑥-⑦-|
33
③口口口 |①--②|
口⑥口⑤ |③--④|
①②⑦① |⑤-⑥-|
口⑧④口 |⑦-⑧-|
34
口口口口 |①-②-|
③④口口 |③-④-|
②口口口
①口口口

口⑤口⑤
口口口⑥
⑨口⑧⑦ |⑤-⑥-|
⑧口口口 |⑦-⑧⑨|
35
口口口⑤ |①-②③|
①②口⑥ |④-⑤⑥|
口③口口
口④①口

口口⑩口
口口⑨口
口口⑧⑦ |⑦-⑧⑨|
口口⑫⑪ |⑩-⑪⑫|
36
④口口③ |①②③④|
口⑥口口 |⑤-⑥-|
口口口⑤
②①口口

口口⑦⑩
口口口口
⑨口口口 |⑦-⑧-|
口口口⑧ |⑨-⑩-|
37
口④口口 |①-②-|
口③口口 |③-④-|
口②口口
口①口口

口口⑩⑨
口口口口
口口⑥⑤ |⑤⑥⑦-|
口⑧口⑦ |⑧-⑨⑩|
38
②口口口 |①-②③|
⑧③⑧① |④-⑤⑥|
④⑧⑥⑤ |⑦---|
⑧口⑧⑦ |⑧---|
39
口口口① |①-②-|
⑥⑦口⑩ |③-④⑤|
②口⑤④ |⑥⑦-⑧|
口③⑨⑧ |⑨-⑩-|
40
⑦⑧①⑧ |①-②③|
⑤⑥⑧口 |④-⑤⑥|
④⑧口⑧ |⑦---|
②③口口 |⑧---|
41
⑦口口口 |①-②③|
⑤⑥⑨⑧ |④-⑤⑥|
⑪⑫④⑩ |⑦-⑧⑨|
①③②口 |⑩-⑪⑫|
42
⑦④⑤⑥ |①-②③|
②口⑧⑧ |④⑤⑥-|
口⑧③⑧ |⑦---|
①⑧⑧⑧ |⑧---|
43
口口⑤④ |①-②-|
③口口口 |③-④⑤|
②口口口
①口口口

口口口口
口⑥⑦口
⑪⑧⑨⑫ |⑥⑦⑧⑨|
口⑩口口 |⑩-⑪⑫|
44
④⑪⑦⑪ |①-②③|
②口⑧③ |④-⑤⑥|
口⑥⑨口 |⑦⑧⑨⑩|
①口⑩⑤ |⑪---|
45
口口口④ |--①-|
口③口口 |②-③-|
⑤口口② |④--⑤|
口①口⑥ |--⑥-|
46
④口口口 |--①-|
口口③口 |②-③-|
口②口⑤ |④--⑤|
口⑥①口 |--⑥-|
47
⑥口口口 |--①-|
②③④⑤ |②③④⑤|
口口①⑦ |⑥--⑦|
口⑧口口 |--⑧-|
48
口口①④ |--①-|
口口②口 |②-③-|
⑤口③口 |④--⑤|
口口⑥口 |--⑥-|
49
口口口③ |--①-|
口口口④ |②---|
口②口⑤ |③-④-|
口①口⑥ |⑤-⑥-|
50
①③①③ |①-②-|
口口口口 |③-④-|
口口口口
口②④口

口口口口
⑤口口⑤
口⑦口口 |⑤---|
口⑥口口 |--⑥⑦|
51
⑧口⑧② |①-②-|
⑦①③口 |③-④-|
⑥口④口 |⑤-⑥-|
⑤口口口 |⑦-⑧-|
52
⑬④口⑨ |①②③④|
⑫⑧口③ |⑤⑥⑦⑧|
⑪②⑤⑦ |⑨--⑩⑪⑫|
⑩⑥①口 |⑬---|
53
⑥①口④ |①---|
③⑥④① |②--③|
⑦②口⑤ |④-⑤-|
口⑦⑤② |⑥-⑦-|
54
④⑤⑥口 |--①-|
④⑤⑥口 |②-③-|
口口③口 |④-⑤-|
②口口① |⑥---|
55
⑤⑥⑦口 |①---|
口口口口 |②--③|
口④③口 |④-⑤-|
②口口① |⑥-⑦-|
56
⑥口口⑦ |①-②-|
①③④② |③-④-|
③⑤⑤④ |⑤-⑥-|
口⑥⑦口 |⑦---|
57
口口①⑤ |①--②|
①②口⑥ |③--④|
口④③⑦ |⑤-⑥-|
③口口⑧ |⑦-⑧-|
58
①②③口 |①-②-|
②口④口 |③-④-|
③④⑤口 |⑤---|
口⑥口口 |--⑥-|
59
①口口② |①-②-|
口③口口 |③-④-|
口口④口
口口口口

⑦口口口
口口口⑧
口⑦口口 |⑤-⑥-|
⑤口⑧⑥ |⑦-⑧-|
60
⑦①①⑧ |①---|
口⑪⑥⑫ |---②③④|
⑤④③② |⑤⑥⑦⑧|
⑨口⑩口 |⑨⑩⑪⑫|
61
口①口口 |①---|
①口口口 |②--③|
③口②口
口口口②

⑤口④⑥
⑦口口口
口口口口 |④-⑤-|
口口口口 |⑥-⑦-|
62
③③⑤④ |--①-|
⑦③①⑥ |②-③-|
③①②① |④⑤⑥-|
③③①口 |⑦---|
63
⑥⑦口⑧ |①--②|
⑤③③口 |③--④|
④④①① |⑤-⑥-|
口②②口 |⑦-⑧-|
64
⑥口④⑦ |①-②-|
口⑤⑤③ |③-④-|
口口②口 |⑤-⑥-|
口⑥⑦① |⑦---|
65
④口口⑤ |①---|
①口③② |②--③|
口②①口 |④-⑤-|
⑥口口⑦ |⑥-⑦-|
66
⑤①②⑤ |①-②-|
①口口② |③-④-|
③口口④ |⑤---|
⑥③④口 |--⑥-|
67
⑦口口③ |①-②-|
口⑥②口 |③-④-|
口①⑤口 |⑤-⑥-|
口口口④ |⑦---|
68
口①口③ |①---|
③口①③ |②---|
③②口③ |③---|
③口②口 |----|
69
①⑥①⑥ |①-②-|
⑧⑤口口 |③④⑤-|
⑨②④口 |⑥-⑦-|
⑩③⑦③ |⑧⑨⑩-|
70
①⑥①⑥ |①-②③|
⑩⑤⑦② |④-⑤-|
⑨口③口 |⑥-⑦-|
⑧④⑧口 |⑧⑨⑩-|
71
①口①口 |①-②-|
口⑤口② |③④⑤-|
口口④口
口③口③

⑩⑥⑩口
口口⑦⑪
口⑧口口 |⑥⑦⑧⑨|
口口⑨口 |⑩-⑪-|
72
口③口④ |①-②-|
③口口口 |③-④-|
口口②口
①口口②

口口口口
口⑤口口
⑤口口⑥ |⑤-⑥-|
⑦口⑦口 |⑦---|
73
①⑥①⑥ |①-②-|
⑧⑤口口 |③④⑤-|
⑨②④口 |⑥-⑦-|
⑩③⑦③ |⑧⑨⑩-|
74
①⑥①⑥ |①-②③|
⑩⑤⑦② |④-⑤-|
⑨口③口 |⑥-⑦-|
⑧④⑧口 |⑧⑨⑩-|
75
⑫⑥口⑥ |①-②-|
⑪③⑦② |③④⑤-|
⑩⑧④口 |⑥-⑦⑧|
⑨⑤口① |⑨⑩⑪⑫|
76
口⑥口⑦ |①---|
⑧①⑤② |②---|
④口⑨① |③④⑤⑥|
口⑩②③ |⑦⑧⑨⑩|
77
②口③口 |①-②-|
口④口口 |③④⑤⑥|
口口口⑤
⑥口①口

口口口⑨
⑧口口口
口⑩⑩口 |⑦-⑧-|
口⑩⑩⑦ |⑨-⑩-|

accuracy: 99.5%
最終更新:2023年06月18日 04:08