アットウィキロゴ
恋時雨
ときめきアイドル project

EXTREME

Level: 9.3
BPM: 185
Notes(hold): 577(93)

1
□①□□ |①---|
①②□⑥ |②③④-|
□□③□ |⑤---|
⑤□□④ |⑥---|
2
①□□□ |①---|
□④□□ |②---|
□□③□ |③---|
□②□□ |④---|
3
□□①□ |①---|
⑥□②① |②③④-|
□③□□ |⑤---|
④□□⑤ |⑥---|
4
□□③□ |①---|
□④□③ |②---|
□□④① |③---|
②□□□ |④---|
5
□②□□ |①---|
②□③□ |----|
①③□□ |②---|
□①□□ |③---|
6
□□□□ |①---|
□②□□ |----|
□□③① |②---|
□□①□ |③---|
7
□②③□ |①---|
②□□③ |②---|
①□□④ |③---|
□①④□ |④---|
8
□□□□ |①---|
□□□□ |----|
①∨□□ |②---|
∧①□□ |③---|

□□□□
□□□□
2□□□
□2③③
9
□①①□ |①---|
②②⑤□ |②-③-|
④④③⑦ |④-⑤-|
⑥⑥□□ |⑥-⑦-|
10
①①②② |①-②-|
③□□④ |----|
□③④□ |③-④-|
□□□□ |----|
11
□□⑤③ |①-②-|
□①①□ |--③-|
□□④□ |--④-|
①□②① |--⑤-|
12
□□□□ |--①-|
③<④② |--②-|
□□□① |③-④-|
□□⑤□ |--⑤-|
13
③□□□ |①-②-|
1②□□ |--③-|
□□>① |④-⑤-|
□□□□ |--⑥-|

□□□⑤
□□□□
□□⑥4
④<□□
14
③□□□ |①-②-|
□□□□ |--③-|
②□□□ |④-⑤⑥|
1□>① |⑦-⑧⑨|

□□⑦□
□⑥⑤⑦
□⑧⑨□
□④□4
15
□①□② |①-②-|
①□④□ |--③-|
□□□③ |--④-|
□□⑤□ |--⑤-|
16
③<④□ |--①-|
□□□① |--②-|
□□②⑤ |③-④-|
□□□□ |--⑤-|
17
1⑦⑥□ |①-②-|
④①①④ |③-④-|
□⑦⑥□ |⑤-⑥-|
②⑤□③ |⑦---|
18
□□∨□ |①---|
□□①□ |----|
□□□□ |----|
□□□□ |②-③-|

□③□□
③□2□
□□□□
□□□□
19
□④②□ |①---|
④□□② |--②-|
□③①□ |③---|
③□□① |--④-|
20
③④□□ |①---|
④③②□ |②---|
□□①② |③---|
□□□① |④---|
21
□④②□ |①---|
④□□② |--②-|
□③□□ |③---|
③①①□ |--④-|
22
□□②□ |①---|
□□□② |②---|
③④①□ |③---|
④③□① |④---|
23
□□□□ |①---|
□□□□ |----|
□□③□ |②---|
□②①① |③---|
24
□①□□ |①---|
①□②□ |②---|
□③□□ |③---|
□□④□ |④---|
25
□□□② |①---|
③<□□ |--②-|
□□□□ |③---|
①□□□ |----|
26
④⑥②□ |①-②-|
1□□⑧ |③-④-|
□□⑧□ |⑤-⑥-|
③⑤⑦□ |⑦-⑧-|
27
□□□□ |①---|
②□①□ |--②-|
□②□① |③---|
□□□□ |--④-|

□□□□
□③④□
③□□□
□□□□
28
□④③□ |①---|
④□□③ |②---|
□②②□ |③---|
①①□□ |④---|
29
③④□② |①---|
□①①□ |--②-|
④③②□ |③---|
□□□□ |--④-|
30
□□①② |①---|
③□②□ |②---|
□③④① |③---|
□④□□ |④---|
31
③□□③ |①---|
□①□□ |----|
①□□□ |②---|
□□□② |③---|
32
⑤□□□ |①---|
□□②□ |②-③-|
□③□□ |④---|
①□④□ |⑤---|
33
□□□□ |①---|
□□□∨ |----|
□□□| |----|
□□□① |②---|

□□□□
□②②□
□□□□
□□□2
34
□□□□ |①---|
∨□□□ |----|
|□□□ |----|
①□□□ |----|
35
□③②□ |①---|
□①①□ |②-③-|
③①①② |--④-|
1□□□ |--⑤-|

□□□□
④□□④
□⑤⑤□
□□□□
36
②④⑥① |--①-|
□□□□ |②-③-|
□□□□ |④-⑤-|
③⑤⑦□ |⑥-⑦-|
37
②④④③ |①---|
□①①□ |②-③-|
②①①③ |--④-|
⑤□□⑤ |--⑤-|
38
□□□□ |--①-|
□②③① |②-③-|
□②③□ |----|
□□□□ |----|
39
①④④① |①---|
□□□□ |②-③-|
□□③□ |--④-|
□②□□ |----|
40
⑤□□□ |①---|
①②□① |②-③-|
□□④□ |--④-|
□④③□ |--⑤-|
41
□①①□ |①-②-|
□③③② |③-④-|
④⑤⑤□ |⑤-⑥-|
□⑦⑦⑥ |⑦---|
42
――① |①---|
①――< |----|
――① |----|
①――< |--②-|

□□□□
□□□□
□②□□
□□□□
43
□□□1 |①---|
1□①□ |----|
□□□1 |②---|
1□□□ |③---|

□②―<
□□□□
②―<□
□□□□

□3□□
□□□③
3□□□
□□□□
44
―②□ |①---|
□□□□ |----|
□>―② |②---|
□①□□ |③---|

□□3□
③□□□
□□□3
□□□□
45
□③□□ |①---|
□□□□ |----|
②□□□ |②---|
□□①□ |③---|
46
□□□∨ |①---|
□□□| |②---|
□□□| |③---|
□□□① |④---|

□□□□
□□∨□
□□|□
□□②2

□□□□
□□□□
□∨□□
□③3□

□□□□
∨□□□
|□□□
④4□□
47
―②□ |①---|
□□①□ |----|
□>―② |②---|
1□□□ |③---|

□□3□
③□□□
□□□3
□□□□
48
□②―< |①---|
□□□□ |----|
②―<□ |②---|
□□①□ |③---|

□3□□
□□□③
3□□□
□□□□
49
□□⑤② |①---|
□⑤④⑤ |②-③-|
□□⑤□ |④---|
③①□□ |⑤---|
50
□□□□ |①---|
②□□□ |--②-|
――③ |③---|
□①□□ |----|
51
□②―< |----|
□□□□ |①---|
②―<1 |②---|
□□□□ |③---|

□3□□
□□□③
3□□□
□□□□
52
―②□ |①---|
□□□□ |----|
□>―② |②---|
□①□□ |③---|

□□3□
③□□□
□□□3
□□□□
53
□③□□ |①---|
□□□□ |----|
②□□□ |②---|
□□①□ |③---|
54
□□□□ |①---|
□□□□ |②---|
□□□□ |③---|
□>―① |④---|

□□□□
□□□□
□□>②
□□□2

□□□□
――③
□□□3
□□□□

□>―④
□□□4
□□□□
□□□□
55
①―<1 |①---|
□□□□ |----|
□□□□ |②---|
□□□□ |③---|

2③□□
③□□□
□□□□
□□□□
56
□□□□ |①---|
□□□□ |②---|
□□>① |③---|
□□①< |④---|

□□□□
□□□□
②<□2
②2□

□□③<
□□>③
3□□□
□3□□

④4□
④<□4
□□□□
□□□□
57
□1□□ |①---|
1□□□ |②---|
□□①< |③---|
□□>① |④---|

□□□□
□□□□
②2□
②<□2

□□>③
□□③<
□3□□
3□□□

④<□4
④4□
□□□□
□□□□
58
1□□□ |①-②-|
□1□□ |--③-|
□□□□ |--④-|
□□□□ |--⑤-|

□∨∨□
③||□
②||□
□①①□

□④⑤□
□□□□
□□□□
□■■□
59
□□□□ |--①-|
□□④① |--②-|
□□□② |③---|
□33□ |④---|
60
∨①□□ |①---|
||□□ |②---|
①∧□□ |③---|
□□□□ |④---|

□2②∨
□□||
2□∧②
□□□□

□□3□
③∨□□
||□3
∧③□□

□□□□
4□∨④
□□||
□4④∧
61
①∨□□ |①---|
||□1 |②---|
∧①□□ |③---|
□□1□ |④---|

2□∨②
□□||
□2②∧
□□□□

□□□3
∨③□□
||3□
③∧□□

□□□□
□4④∨
□□||
4□∧④
62
□□□□ |①-②-|
□□1□ |--③-|
□□□□ |--④-|
□□□1 |--⑤-|

□∨∨□
□||□
□||□
□①①□

□□②③
□□□④
□□□⑤
□■■□
63
□□□□ |--①-|
④□□□ |--②-|
③②①□ |--③-|
□■■□ |--④-|
64
①②④□ |--①-|
□□⑤□ |--②-|
□□□□ |③-④-|
□33□ |⑤---|
65
①∨□□ |①---|
||□□ |②---|
∧①□□ |③---|
□□□□ |④---|

2□∨②
□□||
□2②∧
□□□□

□□□3
∨③□□
||3□
③∧□□

□□□□
□4④∨
□□||
4□∧④
66
□□□□ |①-②-|
□□1□ |--③-|
□□□□ |--④-|
□□□1 |--⑤-|

□∨∨□
□||□
□||□
□①①□

□□②③
□□□④
□□□⑤
□■■□
67
□□□□ |--①-|
④□□□ |--②-|
③②①□ |--③-|
□■■□ |--④-|
68
①②③④ |--①-|
□□□□ |--②-|
□□□□ |--③-|
□■■□ |--④-|
69
□□④□ |--①-|
□□□① |--②-|
□□③② |--③-|
□■■□ |--④-|
70
□⑤□□ |①-②-|
③>―① |--③-|
②④□□ |--④-|
□11□ |--⑤-|
71
□□□□ |--①-|
②□□3 |--②-|
③<④□ |③-④-|
①□□⑤ |--⑤-|
72
□□>① |①-②-|
③②□□ |--③-|
1□□□ |④-⑤-|
□□□□ |--⑥-|

□□□4
□□⑤□
□□□□
④<⑥□
73
□②□□ |①-②-|
□□□□ |--③-|
□③>① |④-⑤-|
1□□□ |--⑥-|

□□⑤□
④<□□
□□□4
□□□⑥
74
③□□□ |①-②-|
1□□□ |--③-|
□□∨□ |④-⑤-|
②□①□ |--⑥-|

□□□⑥
□∨□□
□④□⑤
□□4□
75
□□∨□ |①-②-|
□②①□ |--③-|
□1□□ |④-⑤-|
□③□□ |--⑥-|

□④□□
⑤□4□
□□□□
□□⑥□
76
①□⑤① |①-②-|
⑥④④⑦ |③-④-|
④①①④ |⑤-⑥-|
③⑥⑦② |⑦---|
77
――① |①---|
□□□□ |②-③-|
②③④□ |④---|
⑤□□□ |⑤---|
78
④□□■ |①---|
③①□□ |②---|
□□□□ |③---|
□□②□ |④---|
79
□□□■ |①---|
□①□□ |②-③-|
②③④□ |④---|
⑤□□□ |⑤---|
80
④□□■ |①---|
③①□□ |②---|
□□□□ |③---|
□□②□ |④---|
81
□□□1 |①-②-|
□□②□ |----|
□②□② |----|
□□②□ |----|
最終更新:2019年11月11日 12:07