アットウィキロゴ
砂の惑星 feat.初音ミク
ハチ

BASIC

Level: 2
BPM: 95
Notes: 76

1
口口口口 |----|
口口口口 |----|
口口口口 |----|
口口口口 |----|
2
口口口口 |①---|
口口口口 |----|
口口口口 |----|
①口口口 |----|
3
口口口口 |①---|
口口口口 |----|
口口口口 |----|
口①口口 |----|
4
口口口口 |①---|
口口口口 |----|
口口口口 |----|
口口①口 |----|
5
口口口口 |①---|
口口口口 |----|
口口口口 |----|
口口口① |----|
6
口口口口 |①---|
口口口口 |----|
口口口口 |----|
口口口① |----|
7
口口口口 |①---|
口口口口 |----|
口口口口 |----|
口口①口 |----|
8
口口口口 |①---|
口口口口 |----|
口口口口 |----|
口①口口 |----|
9
口口口口 |①---|
口口口口 |----|
口口口口 |----|
①口口口 |----|
10
口口口口 |①---|
口口口口 |----|
②口口口 |②---|
①口口口 |----|
11
②口口口 |①---|
①口口口 |----|
口口口口 |②---|
口口口口 |----|
12
口①口口 |①---|
口②口口 |----|
口口口口 |②---|
口口口口 |----|
13
口口口口 |①---|
口口口口 |----|
口①口口 |②---|
口②口口 |----|
14
口口口口 |①---|
口口口口 |----|
口口②口 |②---|
口口①口 |----|
15
口口②口 |①---|
口口①口 |----|
口口口口 |②---|
口口口口 |----|
16
口口口① |①---|
口口口② |----|
口口口口 |②---|
口口口口 |----|
17
口口口口 |①---|
口口口口 |----|
口口口① |②---|
口口口② |----|
18
口口口口 |①---|
口口口口 |----|
口口①① |②---|
口口②② |----|
19
口口口口 |①---|
口口口口 |----|
①①口口 |②---|
②②口口 |----|
20
口口口口 |①---|
口口口口 |----|
口口①① |②---|
口口②② |----|
21
口口口口 |①---|
口口口口 |----|
①①口口 |②---|
②②口口 |----|
22
口口口口 |①---|
口①①口 |----|
口②②口 |②---|
口口口口 |----|
23
口口口口 |①---|
口口口① |----|
口口②口 |②---|
口口口口 |----|
24
口口口口 |①---|
口①①口 |----|
口②②口 |②---|
口口口口 |----|
25
口口口口 |①---|
①口口口 |----|
口②口口 |②---|
口口口口 |----|
26
口口口口 |①---|
口①①口 |----|
口②②口 |②---|
口口口口 |----|
27
①口口① |①---|
②口口② |----|
口口口口 |②---|
口口口口 |----|
28
口①口口 |①---|
口口②口 |----|
口口口口 |②---|
口口口口 |----|
29
口口口口 |①---|
口口口口 |----|
口①口口 |②---|
口口②口 |----|
30
口口口口 |①---|
口口口口 |----|
①②口口 |②---|
口口口口 |----|
31
口口口口 |①---|
口口口口 |----|
口口①② |②---|
口口口口 |----|
32
口口口口 |①---|
口口②① |----|
口口口口 |②---|
口口口口 |----|
33
口口口口 |①---|
②①口口 |----|
口口口口 |②---|
口口口口 |----|
34
①②口口 |①---|
口口口口 |----|
口口口口 |②---|
口口口口 |----|
35
口口①② |①---|
口口口口 |----|
口口口口 |②---|
口口口口 |----|

accuracy: 99.5%
最終更新:2023年03月11日 15:05