アットウィキロゴ
砂の惑星 feat.初音ミク
ハチ

ADVANCED

Level: 4
BPM: 95
Notes: 171

1
口口口口 |----|
口口口口 |----|
口口口口 |----|
口口口口 |----|
2
口口口口 |①---|
①口口① |----|
口口口口 |----|
口口口口 |----|
3
口口口口 |①---|
口口口口 |----|
①口口① |----|
口口口口 |----|
4
口口口口 |①---|
口①①口 |----|
口口口口 |----|
口口口口 |----|
5
口口口口 |①---|
口口口口 |----|
口①①口 |----|
口口口口 |----|
6
口口口口 |①---|
①口②① |②---|
①③口① |③---|
口口④口 |④---|
7
口①口口 |①---|
口口②口 |②---|
口③口口 |③---|
口口④口 |④---|
8
口口口口 |①---|
①②口① |②---|
①口③① |③---|
口④口口 |④---|
9
口口①口 |①---|
口②口口 |②---|
口口③口 |③---|
口④口口 |④---|
10
口口口口 |①---|
口口口口 |②---|
①②③④ |③---|
口口口口 |④---|
11
口口口口 |①---|
④③②① |②---|
口口口口 |③---|
口口口口 |④---|
12
①②③④ |①---|
口口口口 |②---|
口口口口 |③---|
口口口口 |④---|
13
口口口口 |①---|
口①①口 |②---|
口②②口 |③---|
口③③口 |----|
14
口口口口 |①---|
口口口口 |②---|
④③②① |③---|
口口口口 |④---|
15
口口口口 |①---|
①②③④ |②---|
口口口口 |③---|
口口口口 |④---|
16
④③②① |①---|
口口口口 |②---|
口口口口 |③---|
口口口口 |④---|
17
口口口口 |①---|
口①①口 |②---|
口②②口 |③---|
口③③口 |----|
18
④口口④ |①---|
③口口③ |②---|
②口口② |③---|
①口口① |④---|
19
口口口口 |①---|
口①①口 |②---|
口②②口 |③---|
口③③口 |----|
20
④口口④ |①---|
③口口③ |②---|
②口口② |③---|
①口口① |④---|
21
③④⑤⑥ |①---|
口①①口 |②---|
口②②口 |③-④-|
口口口口 |⑤-⑥-|
22
②口口口 |①---|
口①①口 |②---|
口①①口
口口口口

口口④口
口③口口
口口口口 |③---|
口口口口 |④---|
23
口口口口 |①---|
口口口① |②---|
口口②口
口口口口

口口口口
③口口③
④口口④ |③---|
口口口口 |④---|
24
②口口口 |①---|
口①①口 |②---|
口①①口
口口口口

口口④口
口③口口
口口口口 |③---|
口口口口 |④---|
25
口口口口 |①---|
口口口① |②---|
口口②口
口口口口

口口口口
③口口③
④口口④ |③---|
口口口口 |④---|
26
口口口② |①---|
口①①口 |②---|
口①①口
口口口口

口④口口
口口③口
口口口口 |③---|
口口口口 |④---|
27
口口口口 |①---|
①口口口 |②---|
口②口口
口口口口

口口口口
③口口③
④口口④ |③---|
口口口口 |④---|
28
口口口② |①---|
口①①口 |②---|
口①①口
口口口口

口④口口
口口③口
口口口口 |③---|
口口口口 |④---|
29
②口口② |①---|
①口口口 |②---|
口口口口 |③---|
③口口③ |----|
30
口口口口 |①---|
口口口口 |----|
口①①口 |②---|
口②②口 |----|
31
口口口口 |①---|
口口口口 |----|
①口口① |②---|
②口口② |----|
32
口口口口 |①---|
口口口口 |②---|
口口口口 |③---|
①②③④ |④---|
33
口口口口 |①---|
口口口口 |②---|
④③②① |③---|
口口口口 |④---|
34
口口口口 |①---|
①②③④ |②---|
口口口口 |③---|
口口口口 |④---|
35
④③②① |①---|
口口口口 |②---|
口口口口 |③---|
口口口口 |④---|

accuracy: 99.5%
最終更新:2023年03月11日 15:11