アットウィキロゴ
砂の惑星 feat.初音ミク
ハチ

EXTREME

Level: 8
BPM: 95
Notes: 475

1
口口口口 |----|
口口口口 |----|
口口口口 |----|
口口口口 |----|
2
②口口口 |①-②③|
③口口口
口口口口
口①①口

口口口⑦
⑧⑥⑥口 |-④-⑤|
口④④⑨ |-⑥-⑦|
⑩⑤⑤口 |⑧⑨⑩-|
3
②口口口 |①-②③|
③口口口
口口口口
口①①口

口口口⑦
⑧⑥⑥口 |-④-⑤|
口④④⑨ |-⑥-⑦|
⑩⑤⑤口 |⑧⑨⑩-|
4
口口口② |①-②③|
口口口③
口口口口
口①①口

⑦口口口
口⑥⑥⑧ |-④-⑤|
⑨④④口 |-⑥-⑦|
口⑤⑤⑩ |⑧⑨⑩-|
5
口口口② |①-②③|
口口口③
口口口口
口①①口

⑦口口口
口⑥⑥⑧ |-④-⑤|
⑨④④口 |-⑥-⑦|
口⑤⑤⑩ |⑧⑨⑩-|
6
②①口① |①-②③|
③口①口
口①口①
口口口口

口口口⑦
⑧⑥⑥口 |-④-⑤|
口⑤⑤⑨ |-⑥-⑦|
⑩④④口 |⑧⑨⑩-|
7
②口口口 |①-②③|
③口口口
口①①口
口口口口

口口口⑦
⑧⑥⑥口 |-④-⑤|
口⑤⑤⑨ |-⑥-⑦|
⑩④④口 |⑧⑨⑩-|
8
①口①② |①-②③|
口①口③
①口①口
口口口口

⑦口口口
口⑥⑥⑧ |-④-⑤|
⑨⑤⑤口 |-⑥-⑦|
口④④⑩ |⑧⑨⑩-|
9
口口口② |①-②③|
口口口③
口①①口
口口口口

⑦口口口
口⑥⑥⑧ |-④-⑤|
⑨⑤⑤口 |-⑥-⑦|
口④④⑩ |⑧⑨⑩-|
10
④①口口 |①-②③|
①口③⑤ |-④⑤⑥|
⑥口②口
口口口口

口⑩口⑪
口口⑨口
口⑧⑫口 |⑦⑧⑨⑩|
口口⑦口 |⑪⑫--|
11
①口口口 |①-②③|
口①⑥② |-④⑤⑥|
口口⑤③
口口④口

⑦口⑨⑪
口⑧口⑩
口口⑫口 |⑦⑧⑨⑩|
口口口口 |⑪⑫--|
12
口②口口 |①-②③|
②口⑥③ |-④⑤⑥|
口⑤口口
①口④口

⑦⑬口⑧
⑬⑦口口
⑨口⑧⑩ |⑦-⑧⑨|
⑪口口⑫ |⑩⑪⑫⑬|
13
④口①⑤ |①-②③|
口口口① |-④-⑤|
②口口③ |----|
⑤②③④ |----|
14
④①口口 |①-②③|
①口③⑤ |-④⑤⑥|
⑥口②口
口口口口

口⑩口⑪
口口⑨口
口⑧⑫口 |⑦⑧⑨⑩|
⑬口⑦口 |⑪⑫-⑬|
15
①④口口 |①-②③|
口①⑤② |-④⑤⑥|
口⑥口③
口口口口

⑦口⑨⑪
口⑧口⑩
口口⑫口 |⑦⑧⑨⑩|
口⑬口口 |⑪⑫-⑬|
16
口②口口 |①-②③|
②口⑥③ |-④⑤⑥|
口⑤口口
口口④①

⑦⑫口⑧
⑫⑦口口
⑨口⑧⑩ |⑦-⑧⑨|
⑪口口口 |⑩⑪-⑫|
17
④口①⑤ |①-②③|
口口口① |-④-⑤|
②口口③
⑤②③④

口口口口
⑧口口口
⑦口口口 |----|
口⑥口口 |-⑥⑦⑧|
18
口⑧口⑤ |①②③④|
⑦④⑤口 |⑤⑥⑦⑧|
⑥③①口
②口口①

⑫⑯⑬⑯
口⑪口⑬
口⑩⑮⑨ |⑨⑩⑪⑫|
口⑭⑨口 |⑬⑭⑮⑯|
19
口口口口 |-①②③|
④口①口 |-④⑤⑥|
口②口⑤
⑥口③口

口口口口
口口口⑨
口口口⑧ |----|
口口⑦口 |-⑦⑧⑨|
20
口口口口 |①②③④|
口口④⑧ |⑤⑥⑦⑧|
⑤①③⑦
①⑤⑥②

⑬⑨⑭⑫
⑨⑬⑪口
口⑮⑩口 |⑨⑩⑪⑫|
口口⑯口 |⑬⑭⑮⑯|
21
⑩口口④ |-①②③|
⑨口⑤③ |-④⑤⑥|
⑧口②⑥ |⑦-⑧-|
⑦①口口 |⑨-⑩-|
22
口①口① |①--②|
口口①口
口①口口
口②②口

④⑧口⑥
⑪口⑦口 |-③④⑤|
⑩⑤③口 |⑥-⑦-⑧-|
⑨口口口 |-⑨⑩⑪|
23
口③口② |-①②③|
⑤口口④ |-④⑤⑥|
口口口⑥
口口①口

⑦口口⑧
口⑨⑨口
口⑨⑨口 |⑦-⑧-⑨-|
⑦⑩口⑧ |---⑩|
24
口①⑤④ |①--②|
①口③口 |-③④⑤|
口口口口
口口口②

口口口口
口口口⑪
⑥口⑧⑩ |⑥-⑦-⑧-|
口⑦口⑨ |-⑨⑩⑪|
25
口口口⑥ |-①②③|
①⑤口口 |-④⑤⑥|
②口口口
③口口④

口⑦口口
⑦口⑧口
口⑧口⑨ |⑦-⑧-⑨-|
口口⑨口 |----|
26
口①口① |①--②|
口口①口
口①口口
口②②口

④⑧口⑥
⑪口⑦口 |-③④⑤|
⑩⑤③口 |⑥-⑦-⑧-|
⑨口口口 |-⑨⑩⑪|
27
口③口② |-①②③|
⑤口口④ |-④⑤⑥|
口口口⑥
口口①口

⑦口口⑧
口⑨⑨口
口⑨⑨口 |⑦-⑧-⑨-|
⑦口口⑧ |----|
28
①口②① |--①-|
⑧③口⑨ |②③④⑤|
⑦口④⑩ |-⑥⑦⑧|
⑥⑤口⑪ |-⑨⑩⑪|
29
③口口③ |①-②③|
口②①口 |-④-⑤|
口④④口
⑤②①⑤

口口口口
口口⑧口
口口⑦口 |----|
口口⑥口 |-⑥⑦⑧|
30
①口①② |--①-|
口③口口 |②③④⑤|
口口④口
⑤口口口

⑨口口口
口口口⑧
⑪⑩口⑦ |-⑥⑦⑧|
口⑪口⑥ |-⑨⑩⑪|
31
④①③⑤ |①-②③|
①口口③ |-④-⑤|
口口口② |----|
⑤口②④ |----|
32
口⑦口⑤ |①②③④|
口口⑥口 |-⑤⑥⑦|
口②口④
①口③口

口口口口
⑪口口⑩
口⑨⑧口 |⑧⑨⑩⑪|
⑫口口⑫ |-⑫--|
33
口⑦口⑤ |①②③④|
口②⑥④ |-⑤⑥⑦|
①口③口
口口口口

⑪口口⑫
⑧口口⑨
⑩口口⑩ |-⑧⑨⑩|
口⑧⑨口 |-⑪⑫-|
34
口⑦口⑤ |①②③④|
口口⑥口 |-⑤⑥⑦|
口②口④
①口③口

口口口口
⑪口口⑩
口⑨⑧口 |⑧⑨⑩⑪|
⑫口口⑫ |-⑫--|
35
口⑦口⑤ |①②③④|
口②⑥④ |-⑤⑥⑦|
①口③口
口口口口

⑪口口⑫
⑧口口⑨
口⑩⑩口 |-⑧⑨⑩|
口⑧⑨口 |-⑪⑫-|

accuracy: 99.5%
最終更新:2023年03月11日 15:40